<?xml version="1.0" standalone="no"?>
<!DOCTYPE svg PUBLIC "-//W3C//DTD SVG 1.1//EN" "http://www.w3.org/Graphics/SVG/1.1/DTD/svg11.dtd" >
<svg xmlns="http://www.w3.org/2000/svg">
<metadata>Generated by IcoMoon</metadata>
<defs>
<font id="icomoon" horiz-adv-x="1024">
<font-face units-per-em="1024" ascent="960" descent="-64" />
<missing-glyph horiz-adv-x="1024" />
<glyph unicode="&#x20;" horiz-adv-x="512" d="" />
<glyph unicode="&#xe900;" glyph-name="aligncenter" d="M810.667 661.333h-597.333c-25.6 0-42.667 17.067-42.667 42.667s17.067 42.667 42.667 42.667h597.333c25.6 0 42.667-17.067 42.667-42.667s-17.067-42.667-42.667-42.667zM682.667 490.667h-341.333c-25.6 0-42.667 17.067-42.667 42.667s17.067 42.667 42.667 42.667h341.333c25.6 0 42.667-17.067 42.667-42.667s-17.067-42.667-42.667-42.667zM810.667 320h-554.667c-25.6 0-42.667 17.067-42.667 42.667s17.067 42.667 42.667 42.667h554.667c25.6 0 42.667-17.067 42.667-42.667s-17.067-42.667-42.667-42.667zM725.333 149.333h-384c-25.6 0-42.667 17.067-42.667 42.667s17.067 42.667 42.667 42.667h384c25.6 0 42.667-17.067 42.667-42.667s-17.067-42.667-42.667-42.667z" />
<glyph unicode="&#xe901;" glyph-name="alignjustify" d="M810.667 661.333h-597.333c-25.6 0-42.667 17.067-42.667 42.667s17.067 42.667 42.667 42.667h597.333c25.6 0 42.667-17.067 42.667-42.667s-17.067-42.667-42.667-42.667zM810.667 490.667h-597.333c-25.6 0-42.667 17.067-42.667 42.667s17.067 42.667 42.667 42.667h597.333c25.6 0 42.667-17.067 42.667-42.667s-17.067-42.667-42.667-42.667zM810.667 320h-597.333c-25.6 0-42.667 17.067-42.667 42.667s17.067 42.667 42.667 42.667h597.333c25.6 0 42.667-17.067 42.667-42.667s-17.067-42.667-42.667-42.667zM810.667 149.333h-597.333c-25.6 0-42.667 17.067-42.667 42.667s17.067 42.667 42.667 42.667h597.333c25.6 0 42.667-17.067 42.667-42.667s-17.067-42.667-42.667-42.667z" />
<glyph unicode="&#xe902;" glyph-name="alignleft" d="M810.667 661.333h-597.333c-25.6 0-42.667 17.067-42.667 42.667s17.067 42.667 42.667 42.667h597.333c25.6 0 42.667-17.067 42.667-42.667s-17.067-42.667-42.667-42.667zM512 490.667h-298.667c-25.6 0-42.667 17.067-42.667 42.667s17.067 42.667 42.667 42.667h298.667c25.6 0 42.667-17.067 42.667-42.667s-17.067-42.667-42.667-42.667zM768 320h-554.667c-25.6 0-42.667 17.067-42.667 42.667s17.067 42.667 42.667 42.667h554.667c25.6 0 42.667-17.067 42.667-42.667s-17.067-42.667-42.667-42.667zM640 149.333h-426.667c-25.6 0-42.667 17.067-42.667 42.667s17.067 42.667 42.667 42.667h426.667c25.6 0 42.667-17.067 42.667-42.667s-17.067-42.667-42.667-42.667z" />
<glyph unicode="&#xe903;" glyph-name="alignright" d="M810.667 661.333h-597.333c-25.6 0-42.667 17.067-42.667 42.667s17.067 42.667 42.667 42.667h597.333c25.6 0 42.667-17.067 42.667-42.667s-17.067-42.667-42.667-42.667zM810.667 490.667h-298.667c-25.6 0-42.667 17.067-42.667 42.667s17.067 42.667 42.667 42.667h298.667c25.6 0 42.667-17.067 42.667-42.667s-17.067-42.667-42.667-42.667zM810.667 320h-554.667c-25.6 0-42.667 17.067-42.667 42.667s17.067 42.667 42.667 42.667h554.667c25.6 0 42.667-17.067 42.667-42.667s-17.067-42.667-42.667-42.667zM810.667 149.333h-426.667c-25.6 0-42.667 17.067-42.667 42.667s17.067 42.667 42.667 42.667h426.667c25.6 0 42.667-17.067 42.667-42.667s-17.067-42.667-42.667-42.667z" />
<glyph unicode="&#xe904;" glyph-name="alt" d="M981.333 192h-426.667c-17.067 0-29.867 8.533-38.4 21.333l-200.533 362.667h-273.067c-25.6 0-42.667 17.067-42.667 42.667s17.067 42.667 42.667 42.667h298.667c17.067 0 29.867-8.533 38.4-21.333l200.533-362.667h401.067c25.6 0 42.667-17.067 42.667-42.667s-17.067-42.667-42.667-42.667zM981.333 576h-426.667c-25.6 0-42.667 17.067-42.667 42.667s17.067 42.667 42.667 42.667h426.667c25.6 0 42.667-17.067 42.667-42.667s-17.067-42.667-42.667-42.667z" />
<glyph unicode="&#xe905;" glyph-name="arrowright" d="M640 192c-12.8 0-21.333 4.267-29.867 12.8-17.067 17.067-17.067 42.667 0 59.733l213.333 213.333c17.067 17.067 42.667 17.067 59.733 0s17.067-42.667 0-59.733l-213.333-213.333c-8.533-8.533-17.067-12.8-29.867-12.8zM853.333 405.333c-12.8 0-21.333 4.267-29.867 12.8l-213.333 213.333c-17.067 17.067-17.067 42.667 0 59.733s42.667 17.067 59.733 0l213.333-213.333c17.067-17.067 17.067-42.667 0-59.733-8.533-8.533-17.067-12.8-29.867-12.8zM853.333 405.333h-682.667c-25.6 0-42.667 17.067-42.667 42.667s17.067 42.667 42.667 42.667h682.667c25.6 0 42.667-17.067 42.667-42.667s-17.067-42.667-42.667-42.667z" />
<glyph unicode="&#xe906;" glyph-name="arrowup" d="M725.333 533.333c-12.8 0-21.333 4.267-29.867 12.8l-213.333 213.333c-17.067 17.067-17.067 42.667 0 59.733s42.667 17.067 59.733 0l213.333-213.333c17.067-17.067 17.067-42.667 0-59.733-8.533-8.533-17.067-12.8-29.867-12.8zM298.667 533.333c-12.8 0-21.333 4.267-29.867 12.8-17.067 17.067-17.067 42.667 0 59.733l213.333 213.333c17.067 17.067 42.667 17.067 59.733 0s17.067-42.667 0-59.733l-213.333-213.333c-8.533-8.533-17.067-12.8-29.867-12.8zM512 64c-25.6 0-42.667 17.067-42.667 42.667v682.667c0 25.6 17.067 42.667 42.667 42.667s42.667-17.067 42.667-42.667v-682.667c0-25.6-17.067-42.667-42.667-42.667z" />
<glyph unicode="&#xe907;" glyph-name="artboard" d="M170.667 21.333c-25.6 0-42.667 17.067-42.667 42.667v640c0 25.6 17.067 42.667 42.667 42.667h810.667c25.6 0 42.667-17.067 42.667-42.667s-17.067-42.667-42.667-42.667h-768v-597.333c0-25.6-17.067-42.667-42.667-42.667zM853.333 149.333h-810.667c-25.6 0-42.667 17.067-42.667 42.667s17.067 42.667 42.667 42.667h768v597.333c0 25.6 17.067 42.667 42.667 42.667s42.667-17.067 42.667-42.667v-640c0-25.6-17.067-42.667-42.667-42.667zM981.333 64c-8.533 0-17.067 4.267-25.6 8.533l-938.667 682.667c-17.067 12.8-21.333 38.4-8.533 59.733 12.8 17.067 42.667 21.333 59.733 8.533l938.667-682.667c17.067-12.8 21.333-42.667 8.533-59.733-8.533-12.8-21.333-17.067-34.133-17.067z" />
<glyph unicode="&#xe908;" glyph-name="at" d="M512-64c-281.6 0-512 230.4-512 512s230.4 512 512 512 512-230.4 512-512c0-25.6-17.067-42.667-42.667-42.667s-42.667 17.067-42.667 42.667c0 234.667-192 426.667-426.667 426.667s-426.667-192-426.667-426.667 192-426.667 426.667-426.667c115.2 0 221.867 42.667 302.933 123.733 17.067 17.067 42.667 17.067 59.733 0s17.067-42.667 0-59.733c-98.133-98.133-226.133-149.333-362.667-149.333zM853.333 277.333c-93.867 0-170.667 76.8-170.667 170.667 0 25.6 17.067 42.667 42.667 42.667s42.667-17.067 42.667-42.667c0-46.933 38.4-85.333 85.333-85.333s85.333 38.4 85.333 85.333c0 25.6 17.067 42.667 42.667 42.667s42.667-17.067 42.667-42.667c0-93.867-76.8-170.667-170.667-170.667zM512 192c-140.8 0-256 115.2-256 256s115.2 256 256 256 256-115.2 256-256-115.2-256-256-256zM512 618.667c-93.867 0-170.667-76.8-170.667-170.667s76.8-170.667 170.667-170.667 170.667 76.8 170.667 170.667-76.8 170.667-170.667 170.667zM725.333 405.333c-25.6 0-42.667 17.067-42.667 42.667v213.333c0 25.6 17.067 42.667 42.667 42.667s42.667-17.067 42.667-42.667v-213.333c0-25.6-17.067-42.667-42.667-42.667z" />
<glyph unicode="&#xe909;" glyph-name="attachment" d="M320 128c-34.133 0-64 12.8-89.6 38.4-51.2 51.2-51.2 132.267 0 179.2 17.067 17.067 42.667 17.067 59.733 0s17.067-42.667 0-59.733c-17.067-17.067-17.067-42.667 0-59.733s42.667-17.067 59.733 0c17.067 17.067 42.667 17.067 59.733 0s17.067-42.667 0-59.733c-25.6-25.6-59.733-38.4-89.6-38.4zM861.867 392.533c-12.8 0-21.333 4.267-29.867 12.8-17.067 17.067-17.067 42.667 0 59.733 51.2 51.2 51.2 132.267 0 179.2-46.933 46.933-132.267 46.933-179.2 0-17.067-17.067-42.667-17.067-59.733 0s-17.067 42.667 0 59.733c38.4 42.667 89.6 64 149.333 64s110.933-21.333 149.333-59.733c81.067-81.067 81.067-217.6 0-302.933-8.533-8.533-21.333-12.8-29.867-12.8zM256 273.067c-12.8 0-21.333 4.267-29.867 12.8-17.067 17.067-17.067 42.667 0 59.733l362.667 362.667c17.067 17.067 42.667 17.067 59.733 0s17.067-42.667 0-59.733l-362.667-362.667c-4.267-8.533-17.067-12.8-29.867-12.8zM499.2 29.867c-12.8 0-21.333 4.267-29.867 12.8-17.067 17.067-17.067 42.667 0 59.733l362.667 362.667c17.067 17.067 42.667 17.067 59.733 0s17.067-42.667 0-59.733l-362.667-362.667c-8.533-8.533-17.067-12.8-29.867-12.8zM379.733 153.6c-12.8 0-21.333 4.267-29.867 12.8-17.067 17.067-17.067 42.667 0 59.733l362.667 362.667c17.067 17.067 42.667 17.067 59.733 0s17.067-42.667 0-59.733l-362.667-362.667c-8.533-12.8-21.333-12.8-29.867-12.8zM136.533 392.533c-12.8 0-21.333 4.267-29.867 12.8-17.067 17.067-17.067 42.667 0 59.733l482.133 482.133c17.067 17.067 42.667 17.067 59.733 0s17.067-42.667 0-59.733l-482.133-482.133c-8.533-8.533-17.067-12.8-29.867-12.8zM320-42.667c-76.8 0-153.6 29.867-209.067 85.333s-85.333 132.267-85.333 209.067 29.867 153.6 85.333 209.067c17.067 17.067 42.667 17.067 59.733 0s17.067-42.667 0-59.733c-38.4-38.4-64-93.867-64-149.333s21.333-110.933 64-149.333c81.067-81.067 217.6-81.067 302.933 0 17.067 17.067 42.667 17.067 59.733 0s17.067-42.667 0-59.733c-64-59.733-136.533-85.333-213.333-85.333z" />
<glyph unicode="&#xe90a;" glyph-name="backward" d="M896 149.333c-8.533 0-17.067 4.267-25.6 8.533l-384 256c-8.533 8.533-17.067 21.333-17.067 34.133s8.533 25.6 17.067 34.133l384 256c12.8 8.533 29.867 8.533 42.667 0 17.067-4.267 25.6-17.067 25.6-34.133v-512c0-17.067-8.533-29.867-21.333-38.4-8.533-4.267-12.8-4.267-21.333-4.267zM588.8 448l264.533-174.933v349.867l-264.533-174.933zM512 149.333c-8.533 0-17.067 4.267-25.6 8.533l-384 256c-8.533 8.533-17.067 21.333-17.067 34.133s8.533 25.6 17.067 34.133l384 256c12.8 8.533 29.867 8.533 42.667 0 17.067-4.267 25.6-17.067 25.6-34.133v-512c0-17.067-8.533-29.867-21.333-38.4-8.533-4.267-12.8-4.267-21.333-4.267zM204.8 448l264.533-174.933v349.867l-264.533-174.933zM128 149.333c-25.6 0-42.667 17.067-42.667 42.667v512c0 25.6 17.067 42.667 42.667 42.667s42.667-17.067 42.667-42.667v-512c0-25.6-17.067-42.667-42.667-42.667z" />
<glyph unicode="&#xe90b;" glyph-name="badge" d="M512 277.333c-187.733 0-341.333 153.6-341.333 341.333s153.6 341.333 341.333 341.333 341.333-153.6 341.333-341.333-153.6-341.333-341.333-341.333zM512 874.667c-140.8 0-256-115.2-256-256s115.2-256 256-256 256 115.2 256 256-115.2 256-256 256zM682.667-64c-8.533 0-12.8 0-17.067 4.267l-153.6 76.8-153.6-76.8c-12.8-8.533-29.867-4.267-42.667 0-8.533 8.533-17.067 25.6-17.067 38.4v384c0 25.6 17.067 42.667 42.667 42.667s42.667-17.067 42.667-42.667v-315.733l110.933 55.467c12.8 4.267 25.6 4.267 38.4 0l110.933-55.467v315.733c0 25.6 17.067 42.667 42.667 42.667s42.667-17.067 42.667-42.667v-384c0-12.8-8.533-29.867-21.333-38.4-8.533 0-17.067-4.267-25.6-4.267z" />
<glyph unicode="&#xe90c;" glyph-name="banknote" d="M981.333 106.667h-938.667c-25.6 0-42.667 17.067-42.667 42.667v597.333c0 25.6 17.067 42.667 42.667 42.667h938.667c25.6 0 42.667-17.067 42.667-42.667v-597.333c0-25.6-17.067-42.667-42.667-42.667zM85.333 192h853.333v512h-853.333v-512zM512 277.333c-93.867 0-170.667 76.8-170.667 170.667s76.8 170.667 170.667 170.667 170.667-76.8 170.667-170.667-76.8-170.667-170.667-170.667zM512 533.333c-46.933 0-85.333-38.4-85.333-85.333s38.4-85.333 85.333-85.333 85.333 38.4 85.333 85.333-38.4 85.333-85.333 85.333zM85.333 533.333c-21.333 0-38.4 4.267-59.733 8.533-21.333 8.533-29.867 34.133-21.333 55.467s34.133 34.133 55.467 25.6c8.533-4.267 17.067-4.267 25.6-4.267 46.933 0 85.333 38.4 85.333 85.333 0 8.533 0 17.067-4.267 25.6-8.533 25.6 0 46.933 25.6 55.467 21.333 8.533 46.933 0 55.467-21.333 4.267-21.333 8.533-38.4 8.533-59.733 0-93.867-76.8-170.667-170.667-170.667zM938.667 533.333c-93.867 0-170.667 76.8-170.667 170.667 0 21.333 4.267 38.4 8.533 59.733 8.533 21.333 34.133 34.133 55.467 25.6s34.133-34.133 25.6-55.467c-4.267-12.8-4.267-21.333-4.267-29.867 0-46.933 38.4-85.333 85.333-85.333 8.533 0 17.067 0 25.6 4.267 21.333 8.533 46.933-4.267 55.467-25.6s-4.267-46.933-25.6-55.467c-17.067-4.267-34.133-8.533-55.467-8.533zM204.8 106.667c-4.267 0-8.533 0-17.067 4.267-21.333 8.533-34.133 34.133-25.6 55.467 8.533 8.533 8.533 17.067 8.533 25.6 0 46.933-38.4 85.333-85.333 85.333-8.533 0-17.067 0-25.6-4.267-21.333-8.533-46.933 4.267-55.467 25.6s4.267 46.933 25.6 55.467c17.067 4.267 34.133 8.533 55.467 8.533 93.867 0 170.667-76.8 170.667-170.667 0-21.333-4.267-38.4-8.533-59.733-8.533-17.067-25.6-25.6-42.667-25.6zM819.2 106.667c-17.067 0-34.133 8.533-38.4 25.6-8.533 21.333-12.8 38.4-12.8 59.733 0 93.867 76.8 170.667 170.667 170.667 21.333 0 38.4-4.267 59.733-8.533 21.333-8.533 34.133-34.133 25.6-55.467s-34.133-34.133-55.467-25.6c-12.8 4.267-21.333 4.267-29.867 4.267-46.933 0-85.333-38.4-85.333-85.333 0-8.533 0-17.067 4.267-25.6 8.533-21.333-4.267-46.933-25.6-55.467-4.267-4.267-8.533-4.267-12.8-4.267z" />
<glyph unicode="&#xe90d;" glyph-name="barchart" d="M1024-64h-810.667c-93.867 0-170.667 76.8-170.667 170.667v810.667c0 25.6 17.067 42.667 42.667 42.667s42.667-17.067 42.667-42.667v-810.667c0-46.933 38.4-85.333 85.333-85.333h810.667c25.6 0 42.667-17.067 42.667-42.667s-17.067-42.667-42.667-42.667zM256 106.667c-25.6 0-42.667 17.067-42.667 42.667v213.333c0 25.6 17.067 42.667 42.667 42.667s42.667-17.067 42.667-42.667v-213.333c0-25.6-17.067-42.667-42.667-42.667zM426.667 106.667c-25.6 0-42.667 17.067-42.667 42.667v384c0 25.6 17.067 42.667 42.667 42.667s42.667-17.067 42.667-42.667v-384c0-25.6-17.067-42.667-42.667-42.667zM597.333 106.667c-25.6 0-42.667 17.067-42.667 42.667v298.667c0 25.6 17.067 42.667 42.667 42.667s42.667-17.067 42.667-42.667v-298.667c0-25.6-17.067-42.667-42.667-42.667zM768 106.667c-25.6 0-42.667 17.067-42.667 42.667v512c0 25.6 17.067 42.667 42.667 42.667s42.667-17.067 42.667-42.667v-512c0-25.6-17.067-42.667-42.667-42.667zM938.667 106.667c-25.6 0-42.667 17.067-42.667 42.667v256c0 25.6 17.067 42.667 42.667 42.667s42.667-17.067 42.667-42.667v-256c0-25.6-17.067-42.667-42.667-42.667z" />
<glyph unicode="&#xe90e;" glyph-name="basketball" d="M512-64c-281.6 0-512 230.4-512 512s230.4 512 512 512 512-230.4 512-512-230.4-512-512-512zM512 874.667c-234.667 0-426.667-192-426.667-426.667s192-426.667 426.667-426.667 426.667 192 426.667 426.667-192 426.667-426.667 426.667zM217.6 38.4c-12.8 0-25.6 4.267-34.133 17.067-12.8 17.067-8.533 46.933 8.533 59.733 93.867 68.267 149.333 196.267 149.333 332.8 0 85.333-21.333 162.133-59.733 230.4-25.6 42.667-55.467 76.8-89.6 102.4-17.067 12.8-21.333 38.4-8.533 59.733 12.8 17.067 42.667 21.333 59.733 8.533 42.667-34.133 81.067-76.8 110.933-128 46.933-76.8 72.533-170.667 72.533-268.8 0-166.4-68.267-315.733-183.467-405.333-8.533-4.267-17.067-8.533-25.6-8.533zM806.4 38.4c-8.533 0-17.067 4.267-25.6 8.533-115.2 85.333-183.467 234.667-183.467 401.067 0 102.4 25.6 196.267 72.533 277.333 29.867 46.933 64 89.6 106.667 123.733 17.067 12.8 46.933 8.533 59.733-8.533s8.533-46.933-8.533-59.733c-34.133-25.6-64-59.733-85.333-98.133-38.4-68.267-59.733-149.333-59.733-234.667 0-136.533 55.467-264.533 149.333-332.8 17.067-12.8 21.333-42.667 8.533-59.733-8.533-8.533-21.333-17.067-34.133-17.067zM554.667 405.333c-64 0-119.467 0-170.667 4.267-136.533 4.267-243.2 17.067-332.8 29.867-21.333 4.267-38.4 25.6-38.4 46.933s25.6 38.4 46.933 38.4c85.333-12.8 196.267-25.6 324.267-29.867 51.2 0 106.667-4.267 170.667-4.267 29.867 0 55.467 0 85.333 0 119.467 0 234.667 8.533 337.067 17.067 21.333 4.267 42.667-12.8 46.933-38.4 4.267-21.333-12.8-42.667-38.4-46.933-102.4-8.533-221.867-17.067-345.6-17.067-25.6 0-55.467 0-85.333 0z" />
<glyph unicode="&#xe90f;" glyph-name="batteryhigh" d="M640 746.667h-256c-25.6 0-42.667 17.067-42.667 42.667v128c0 25.6 17.067 42.667 42.667 42.667h256c25.6 0 42.667-17.067 42.667-42.667v-128c0-25.6-17.067-42.667-42.667-42.667zM426.667 832h170.667v42.667h-170.667v-42.667zM768-64h-512c-25.6 0-42.667 17.067-42.667 42.667v810.667c0 25.6 17.067 42.667 42.667 42.667h512c25.6 0 42.667-17.067 42.667-42.667v-810.667c0-25.6-17.067-42.667-42.667-42.667zM298.667 21.333h426.667v725.333h-426.667v-725.333zM256 490.667c-21.333 0-38.4 12.8-42.667 34.133-4.267 25.6 12.8 46.933 34.133 51.2l512 85.333c21.333 4.267 46.933-12.8 51.2-34.133s-12.8-46.933-34.133-51.2l-512-85.333c-4.267 0-4.267 0-8.533 0z" />
<glyph unicode="&#xe910;" glyph-name="batterylow" d="M640 746.667h-256c-25.6 0-42.667 17.067-42.667 42.667v128c0 25.6 17.067 42.667 42.667 42.667h256c25.6 0 42.667-17.067 42.667-42.667v-128c0-25.6-17.067-42.667-42.667-42.667zM426.667 832h170.667v42.667h-170.667v-42.667zM768-64h-512c-25.6 0-42.667 17.067-42.667 42.667v810.667c0 25.6 17.067 42.667 42.667 42.667h512c25.6 0 42.667-17.067 42.667-42.667v-810.667c0-25.6-17.067-42.667-42.667-42.667zM298.667 21.333h426.667v725.333h-426.667v-725.333zM256 64c-21.333 0-38.4 12.8-42.667 34.133s12.8 46.933 34.133 51.2l512 85.333c21.333 4.267 46.933-12.8 51.2-34.133s-12.8-46.933-34.133-51.2l-512-85.333c-4.267 0-4.267 0-8.533 0z" />
<glyph unicode="&#xe911;" glyph-name="bed" d="M981.333 405.333h-597.333c-25.6 0-42.667 17.067-42.667 42.667v42.667c0 93.867 76.8 170.667 170.667 170.667h341.333c93.867 0 170.667-76.8 170.667-170.667v-42.667c0-25.6-17.067-42.667-42.667-42.667zM426.667 490.667h512c0 46.933-38.4 85.333-85.333 85.333h-341.333c-46.933 0-85.333-38.4-85.333-85.333zM981.333 234.667h-938.667c-25.6 0-42.667 17.067-42.667 42.667v512c0 25.6 17.067 42.667 42.667 42.667s42.667-17.067 42.667-42.667v-469.333h853.333v128c0 25.6 17.067 42.667 42.667 42.667s42.667-17.067 42.667-42.667v-170.667c0-25.6-17.067-42.667-42.667-42.667zM810.667 405.333h-725.333c-25.6 0-42.667 17.067-42.667 42.667s17.067 42.667 42.667 42.667h725.333c25.6 0 42.667-17.067 42.667-42.667s-17.067-42.667-42.667-42.667zM384 405.333h-341.333c-25.6 0-42.667 17.067-42.667 42.667v42.667c0 93.867 76.8 170.667 170.667 170.667h85.333c93.867 0 170.667-76.8 170.667-170.667v-42.667c0-25.6-17.067-42.667-42.667-42.667zM85.333 490.667h256c0 46.933-38.4 85.333-85.333 85.333h-85.333c-46.933 0-85.333-38.4-85.333-85.333zM981.333 64h-938.667c-25.6 0-42.667 17.067-42.667 42.667v170.667c0 25.6 17.067 42.667 42.667 42.667h938.667c25.6 0 42.667-17.067 42.667-42.667v-170.667c0-25.6-17.067-42.667-42.667-42.667zM85.333 149.333h853.333v85.333h-853.333v-85.333z" />
<glyph unicode="&#xe912;" glyph-name="bell" d="M768 490.667c-25.6 0-42.667 17.067-42.667 42.667 0 119.467-93.867 213.333-213.333 213.333s-213.333-93.867-213.333-213.333c0-25.6-17.067-42.667-42.667-42.667s-42.667 17.067-42.667 42.667c0 166.4 132.267 298.667 298.667 298.667s298.667-132.267 298.667-298.667c0-25.6-17.067-42.667-42.667-42.667zM896 106.667c-93.867 0-170.667 110.933-170.667 256 0 25.6 17.067 42.667 42.667 42.667s42.667-17.067 42.667-42.667c0-98.133 46.933-170.667 85.333-170.667 25.6 0 42.667-17.067 42.667-42.667s-17.067-42.667-42.667-42.667zM128 106.667c-25.6 0-42.667 17.067-42.667 42.667s17.067 42.667 42.667 42.667c38.4 0 85.333 72.533 85.333 170.667 0 25.6 17.067 42.667 42.667 42.667s42.667-17.067 42.667-42.667c0-145.067-76.8-256-170.667-256zM896 106.667h-768c-25.6 0-42.667 17.067-42.667 42.667s17.067 42.667 42.667 42.667h768c25.6 0 42.667-17.067 42.667-42.667s-17.067-42.667-42.667-42.667zM256 320c-25.6 0-42.667 17.067-42.667 42.667v170.667c0 25.6 17.067 42.667 42.667 42.667s42.667-17.067 42.667-42.667v-170.667c0-25.6-17.067-42.667-42.667-42.667zM768 320c-25.6 0-42.667 17.067-42.667 42.667v170.667c0 25.6 17.067 42.667 42.667 42.667s42.667-17.067 42.667-42.667v-170.667c0-25.6-17.067-42.667-42.667-42.667zM512-64c-93.867 0-170.667 76.8-170.667 170.667 0 21.333 4.267 38.4 8.533 59.733 8.533 21.333 34.133 34.133 55.467 25.6s34.133-34.133 25.6-55.467c-4.267-12.8-4.267-21.333-4.267-29.867 0-46.933 38.4-85.333 85.333-85.333s85.333 38.4 85.333 85.333c0 8.533 0 17.067-4.267 25.6-8.533 21.333 4.267 46.933 25.6 55.467s46.933-4.267 55.467-25.6c8.533-17.067 8.533-38.4 8.533-59.733 0-89.6-76.8-166.4-170.667-166.4zM512 746.667c-25.6 0-42.667 17.067-42.667 42.667v128c0 25.6 17.067 42.667 42.667 42.667s42.667-17.067 42.667-42.667v-128c0-25.6-17.067-42.667-42.667-42.667z" />
<glyph unicode="&#xe913;" glyph-name="bin" d="M384 832h-85.333c0 72.533 55.467 128 128 128v-85.333c-25.6 0-42.667-17.067-42.667-42.667zM725.333 832h-85.333c0 25.6-17.067 42.667-42.667 42.667v85.333c72.533 0 128-55.467 128-128zM725.333 704h-426.667v128h85.333v-42.667h256v42.667h85.333zM426.667 960h170.667v-85.333h-170.667v85.333zM896 704h-768c-25.6 0-42.667 17.067-42.667 42.667s17.067 42.667 42.667 42.667h768c25.6 0 42.667-17.067 42.667-42.667s-17.067-42.667-42.667-42.667zM810.667-64h-597.333c-25.6 0-42.667 17.067-42.667 42.667v597.333c0 25.6 17.067 42.667 42.667 42.667h597.333c25.6 0 42.667-17.067 42.667-42.667v-597.333c0-25.6-17.067-42.667-42.667-42.667zM256 21.333h512v512h-512v-512zM426.667 106.667c-25.6 0-42.667 17.067-42.667 42.667v256c0 25.6 17.067 42.667 42.667 42.667s42.667-17.067 42.667-42.667v-256c0-25.6-17.067-42.667-42.667-42.667zM597.333 106.667c-25.6 0-42.667 17.067-42.667 42.667v256c0 25.6 17.067 42.667 42.667 42.667s42.667-17.067 42.667-42.667v-256c0-25.6-17.067-42.667-42.667-42.667z" />
<glyph unicode="&#xe914;" glyph-name="block" d="M512-64c-281.6 0-512 230.4-512 512s230.4 512 512 512 512-230.4 512-512-230.4-512-512-512zM512 874.667c-234.667 0-426.667-192-426.667-426.667s192-426.667 426.667-426.667 426.667 192 426.667 426.667-192 426.667-426.667 426.667zM844.8 72.533c-12.8 0-21.333 4.267-29.867 12.8l-665.6 665.6c-17.067 17.067-17.067 42.667 0 59.733s42.667 17.067 59.733 0l665.6-665.6c17.067-17.067 17.067-42.667 0-59.733-8.533-8.533-21.333-12.8-29.867-12.8z" />
<glyph unicode="&#xe915;" glyph-name="bluetooth" d="M512 405.333c-4.267 0-12.8 0-17.067 4.267-17.067 4.267-25.6 21.333-25.6 38.4v426.667c0 17.067 8.533 34.133 25.6 38.4 17.067 8.533 34.133 4.267 46.933-8.533l213.333-213.333c17.067-17.067 17.067-42.667 0-59.733l-213.333-213.333c-8.533-8.533-17.067-12.8-29.867-12.8zM554.667 772.267v-221.867l110.933 110.933-110.933 110.933zM512-21.333c-4.267 0-12.8 0-17.067 4.267-17.067 4.267-25.6 21.333-25.6 38.4v426.667c0 17.067 8.533 34.133 25.6 38.4 17.067 8.533 34.133 4.267 46.933-8.533l213.333-213.333c17.067-17.067 17.067-42.667 0-59.733l-213.333-213.333c-8.533-8.533-17.067-12.8-29.867-12.8zM554.667 345.6v-221.867l110.933 110.933-110.933 110.933zM512 405.333c-12.8 0-21.333 4.267-29.867 12.8l-213.333 213.333c-17.067 17.067-17.067 42.667 0 59.733s42.667 17.067 59.733 0l213.333-213.333c17.067-17.067 17.067-42.667 0-59.733-8.533-8.533-17.067-12.8-29.867-12.8zM298.667 192c-12.8 0-21.333 4.267-29.867 12.8-17.067 17.067-17.067 42.667 0 59.733l213.333 213.333c17.067 17.067 42.667 17.067 59.733 0s17.067-42.667 0-59.733l-213.333-213.333c-8.533-8.533-17.067-12.8-29.867-12.8z" />
<glyph unicode="&#xe916;" glyph-name="book" d="M512-64c-8.533 0-17.067 4.267-21.333 8.533-4.267 0-128 76.8-448 76.8-25.6 0-42.667 17.067-42.667 42.667v853.333c0 25.6 17.067 42.667 42.667 42.667 273.067 0 418.133-55.467 469.333-81.067 51.2 25.6 196.267 81.067 469.333 81.067 25.6 0 42.667-17.067 42.667-42.667v-853.333c0-25.6-17.067-42.667-42.667-42.667-320 0-443.733-76.8-448-76.8-4.267-4.267-12.8-8.533-21.333-8.533zM85.333 106.667c247.467-4.267 375.467-55.467 426.667-81.067 51.2 25.6 179.2 72.533 426.667 81.067v768c-290.133-8.533-401.067-76.8-405.333-76.8-12.8-8.533-34.133-8.533-46.933 0 0 0-115.2 72.533-401.067 76.8v-768zM512-64c-25.6 0-42.667 17.067-42.667 42.667v853.333c0 25.6 17.067 42.667 42.667 42.667s42.667-17.067 42.667-42.667v-853.333c0-25.6-17.067-42.667-42.667-42.667zM42.667 21.333c-25.6 0-42.667 17.067-42.667 42.667v682.667c0 25.6 17.067 42.667 42.667 42.667s42.667-17.067 42.667-42.667v-682.667c0-25.6-17.067-42.667-42.667-42.667zM512-64c-25.6 0-42.667 17.067-42.667 42.667v682.667c0 25.6 17.067 42.667 42.667 42.667s42.667-17.067 42.667-42.667v-682.667c0-25.6-17.067-42.667-42.667-42.667zM42.667 21.333c-25.6 0-42.667 17.067-42.667 42.667v554.667c0 25.6 17.067 42.667 42.667 42.667s42.667-17.067 42.667-42.667v-554.667c0-25.6-17.067-42.667-42.667-42.667zM512-64c-25.6 0-42.667 17.067-42.667 42.667v554.667c0 25.6 17.067 42.667 42.667 42.667s42.667-17.067 42.667-42.667v-554.667c0-25.6-17.067-42.667-42.667-42.667zM42.667 21.333c-25.6 0-42.667 17.067-42.667 42.667v426.667c0 25.6 17.067 42.667 42.667 42.667s42.667-17.067 42.667-42.667v-426.667c0-25.6-17.067-42.667-42.667-42.667zM512-64c-25.6 0-42.667 17.067-42.667 42.667v426.667c0 25.6 17.067 42.667 42.667 42.667s42.667-17.067 42.667-42.667v-426.667c0-25.6-17.067-42.667-42.667-42.667zM42.667 21.333c-25.6 0-42.667 17.067-42.667 42.667v298.667c0 25.6 17.067 42.667 42.667 42.667s42.667-17.067 42.667-42.667v-298.667c0-25.6-17.067-42.667-42.667-42.667zM512-64c-25.6 0-42.667 17.067-42.667 42.667v298.667c0 25.6 17.067 42.667 42.667 42.667s42.667-17.067 42.667-42.667v-298.667c0-25.6-17.067-42.667-42.667-42.667zM42.667 21.333c-25.6 0-42.667 17.067-42.667 42.667v170.667c0 25.6 17.067 42.667 42.667 42.667s42.667-17.067 42.667-42.667v-170.667c0-25.6-17.067-42.667-42.667-42.667zM512-64c-25.6 0-42.667 17.067-42.667 42.667v170.667c0 25.6 17.067 42.667 42.667 42.667s42.667-17.067 42.667-42.667v-170.667c0-25.6-17.067-42.667-42.667-42.667z" />
<glyph unicode="&#xe917;" glyph-name="box" d="M981.333 21.333h-938.667c-25.6 0-42.667 17.067-42.667 42.667v768c0 25.6 17.067 42.667 42.667 42.667h938.667c25.6 0 42.667-17.067 42.667-42.667v-768c0-25.6-17.067-42.667-42.667-42.667zM85.333 106.667h853.333v682.667h-853.333v-682.667zM981.333 618.667h-938.667c-25.6 0-42.667 17.067-42.667 42.667s17.067 42.667 42.667 42.667h938.667c25.6 0 42.667-17.067 42.667-42.667s-17.067-42.667-42.667-42.667zM640 448h-256c-25.6 0-42.667 17.067-42.667 42.667s17.067 42.667 42.667 42.667h256c25.6 0 42.667-17.067 42.667-42.667s-17.067-42.667-42.667-42.667z" />
<glyph unicode="&#xe918;" glyph-name="brightness" d="M512 746.667c-25.6 0-42.667 17.067-42.667 42.667v128c0 25.6 17.067 42.667 42.667 42.667s42.667-17.067 42.667-42.667v-128c0-25.6-17.067-42.667-42.667-42.667zM512-64c-25.6 0-42.667 17.067-42.667 42.667v128c0 25.6 17.067 42.667 42.667 42.667s42.667-17.067 42.667-42.667v-128c0-25.6-17.067-42.667-42.667-42.667zM981.333 405.333h-128c-25.6 0-42.667 17.067-42.667 42.667s17.067 42.667 42.667 42.667h128c25.6 0 42.667-17.067 42.667-42.667s-17.067-42.667-42.667-42.667zM170.667 405.333h-128c-25.6 0-42.667 17.067-42.667 42.667s17.067 42.667 42.667 42.667h128c25.6 0 42.667-17.067 42.667-42.667s-17.067-42.667-42.667-42.667zM755.2 648.533c-12.8 0-21.333 4.267-29.867 12.8-17.067 17.067-17.067 42.667 0 59.733l89.6 89.6c17.067 17.067 42.667 17.067 59.733 0s17.067-42.667 0-59.733l-89.6-89.6c-8.533-8.533-21.333-12.8-29.867-12.8zM179.2 72.533c-12.8 0-21.333 4.267-29.867 12.8-17.067 17.067-17.067 42.667 0 59.733l89.6 89.6c17.067 17.067 42.667 17.067 59.733 0s17.067-42.667 0-59.733l-89.6-89.6c-8.533-8.533-17.067-12.8-29.867-12.8zM844.8 72.533c-12.8 0-21.333 4.267-29.867 12.8l-89.6 89.6c-17.067 17.067-17.067 42.667 0 59.733s42.667 17.067 59.733 0l89.6-89.6c17.067-17.067 17.067-42.667 0-59.733-8.533-8.533-21.333-12.8-29.867-12.8zM268.8 648.533c-12.8 0-21.333 4.267-29.867 12.8l-89.6 89.6c-17.067 17.067-17.067 42.667 0 59.733s42.667 17.067 59.733 0l89.6-89.6c17.067-17.067 17.067-42.667 0-59.733-4.267-8.533-17.067-12.8-29.867-12.8zM512 234.667c-119.467 0-213.333 93.867-213.333 213.333s93.867 213.333 213.333 213.333 213.333-93.867 213.333-213.333-93.867-213.333-213.333-213.333zM512 576c-72.533 0-128-55.467-128-128s55.467-128 128-128 128 55.467 128 128-55.467 128-128 128z" />
<glyph unicode="&#xe919;" glyph-name="brush" d="M426.667 192c-25.6 0-42.667 17.067-42.667 42.667 0 12.8-4.267 21.333-4.267 29.867-8.533 21.333-25.6 38.4-46.933 46.933-59.733 25.6-119.467-17.067-119.467-76.8 0-25.6-17.067-42.667-42.667-42.667s-42.667 17.067-42.667 42.667c0 93.867 76.8 170.667 170.667 170.667 21.333 0 42.667-4.267 64-12.8 42.667-17.067 76.8-51.2 93.867-93.867 8.533-17.067 12.8-42.667 12.8-64 0-25.6-21.333-42.667-42.667-42.667zM42.667-64c-25.6 0-42.667 17.067-42.667 42.667s17.067 42.667 42.667 42.667c183.467 0 341.333 98.133 341.333 213.333 0 25.6 17.067 42.667 42.667 42.667s42.667-17.067 42.667-42.667c0-166.4-192-298.667-426.667-298.667zM42.667-64c-25.6 0-42.667 17.067-42.667 42.667s17.067 42.667 42.667 42.667c34.133 0 85.333 81.067 85.333 213.333 0 25.6 17.067 42.667 42.667 42.667s42.667-17.067 42.667-42.667c0-170.667-72.533-298.667-170.667-298.667zM418.133 238.933c-4.267 0-8.533 0-8.533 0-12.8 4.267-25.6 12.8-29.867 25.6-8.533 21.333-25.6 38.4-46.933 46.933-12.8 4.267-21.333 17.067-25.6 29.867s0 29.867 8.533 38.4l477.867 537.6c55.467 55.467 140.8 51.2 187.733 0 29.867-21.333 42.667-55.467 42.667-89.6s-12.8-68.267-38.4-93.867l-541.867-482.133c-8.533-8.533-17.067-12.8-25.6-12.8zM413.867 362.667c4.267-4.267 8.533-8.533 12.8-12.8l499.2 443.733c8.533 8.533 12.8 21.333 12.8 34.133s-4.267 25.6-12.8 34.133c-21.333 21.333-51.2 21.333-68.267 0l-443.733-499.2z" />
<glyph unicode="&#xe91a;" glyph-name="bucket" d="M725.333 21.333h-597.333c-21.333 0-38.4 17.067-42.667 38.4l-85.333 768c0 12.8 4.267 25.6 8.533 34.133 8.533 8.533 21.333 12.8 34.133 12.8h768c12.8 0 25.6-4.267 29.867-12.8 8.533-8.533 12.8-21.333 12.8-34.133l-85.333-768c-4.267-21.333-21.333-38.4-42.667-38.4zM166.4 106.667h520.533l76.8 682.667h-674.133l76.8-682.667zM951.467 294.4c-38.4 0-98.133 17.067-209.067 76.8-72.533 38.4-162.133 93.867-268.8 162.133-42.667 29.867-72.533 46.933-72.533 46.933-17.067 17.067-21.333 42.667-8.533 64s38.4 25.6 59.733 12.8c0 0 25.6-17.067 68.267-46.933 38.4-25.6 157.867-102.4 264.533-157.867 85.333-46.933 128-59.733 149.333-64-12.8 38.4-64 102.4-174.933 187.733-17.067 12.8-21.333 42.667-8.533 59.733s42.667 21.333 59.733 8.533c145.067-110.933 213.333-200.533 213.333-273.067 0-25.6-12.8-46.933-29.867-59.733-12.8-12.8-25.6-17.067-42.667-17.067zM512 618.667c0-47.128-38.205-85.333-85.333-85.333s-85.333 38.205-85.333 85.333c0 47.128 38.205 85.333 85.333 85.333s85.333-38.205 85.333-85.333zM426.667 512c-59.733 0-106.667 46.933-106.667 106.667s46.933 106.667 106.667 106.667 106.667-46.933 106.667-106.667-46.933-106.667-106.667-106.667zM426.667 682.667c-34.133 0-64-29.867-64-64s29.867-64 64-64 64 29.867 64 64-29.867 64-64 64z" />
<glyph unicode="&#xe91b;" glyph-name="building" d="M554.667-64h-512c-25.6 0-42.667 17.067-42.667 42.667v938.667c0 25.6 17.067 42.667 42.667 42.667h512c25.6 0 42.667-17.067 42.667-42.667v-938.667c0-25.6-17.067-42.667-42.667-42.667zM85.333 21.333h426.667v853.333h-426.667v-853.333zM981.333-64h-426.667c-25.6 0-42.667 17.067-42.667 42.667v682.667c0 25.6 17.067 42.667 42.667 42.667h426.667c25.6 0 42.667-17.067 42.667-42.667v-682.667c0-25.6-17.067-42.667-42.667-42.667zM597.333 21.333h341.333v597.333h-341.333v-597.333zM213.333 277.333c-25.6 0-42.667 17.067-42.667 42.667v426.667c0 25.6 17.067 42.667 42.667 42.667s42.667-17.067 42.667-42.667v-426.667c0-25.6-17.067-42.667-42.667-42.667zM384 277.333c-25.6 0-42.667 17.067-42.667 42.667v426.667c0 25.6 17.067 42.667 42.667 42.667s42.667-17.067 42.667-42.667v-426.667c0-25.6-17.067-42.667-42.667-42.667zM853.333-64h-170.667c-25.6 0-42.667 17.067-42.667 42.667v170.667c0 25.6 17.067 42.667 42.667 42.667h170.667c25.6 0 42.667-17.067 42.667-42.667v-170.667c0-25.6-17.067-42.667-42.667-42.667zM725.333 21.333h85.333v85.333h-85.333v-85.333zM384-64h-170.667c-25.6 0-42.667 17.067-42.667 42.667v170.667c0 25.6 17.067 42.667 42.667 42.667h170.667c25.6 0 42.667-17.067 42.667-42.667v-170.667c0-25.6-17.067-42.667-42.667-42.667zM256 21.333h85.333v85.333h-85.333v-85.333zM853.333 277.333h-170.667c-25.6 0-42.667 17.067-42.667 42.667s17.067 42.667 42.667 42.667h170.667c25.6 0 42.667-17.067 42.667-42.667s-17.067-42.667-42.667-42.667zM853.333 448h-170.667c-25.6 0-42.667 17.067-42.667 42.667s17.067 42.667 42.667 42.667h170.667c25.6 0 42.667-17.067 42.667-42.667s-17.067-42.667-42.667-42.667z" />
<glyph unicode="&#xe91c;" glyph-name="calendar" d="M896-21.333h-768c-72.533 0-128 55.467-128 128v597.333c0 72.533 55.467 128 128 128h768c72.533 0 128-55.467 128-128v-597.333c0-72.533-55.467-128-128-128zM128 746.667c-25.6 0-42.667-17.067-42.667-42.667v-597.333c0-25.6 17.067-42.667 42.667-42.667h768c25.6 0 42.667 17.067 42.667 42.667v597.333c0 25.6-17.067 42.667-42.667 42.667h-768zM256 661.333c-25.6 0-42.667 17.067-42.667 42.667v170.667c0 25.6 17.067 42.667 42.667 42.667s42.667-17.067 42.667-42.667v-170.667c0-25.6-17.067-42.667-42.667-42.667zM768 661.333c-25.6 0-42.667 17.067-42.667 42.667v170.667c0 25.6 17.067 42.667 42.667 42.667s42.667-17.067 42.667-42.667v-170.667c0-25.6-17.067-42.667-42.667-42.667zM981.333 490.667h-938.667c-25.6 0-42.667 17.067-42.667 42.667s17.067 42.667 42.667 42.667h938.667c25.6 0 42.667-17.067 42.667-42.667s-17.067-42.667-42.667-42.667zM298.667 362.667c0-23.564-19.103-42.667-42.667-42.667s-42.667 19.103-42.667 42.667c0 23.564 19.103 42.667 42.667 42.667s42.667-19.103 42.667-42.667zM256 298.667c-34.133 0-64 29.867-64 64s29.867 64 64 64 64-29.867 64-64-29.867-64-64-64zM256 384c-12.8 0-21.333-8.533-21.333-21.333s8.533-21.333 21.333-21.333 21.333 8.533 21.333 21.333-8.533 21.333-21.333 21.333zM298.667 192c0-23.564-19.103-42.667-42.667-42.667s-42.667 19.103-42.667 42.667c0 23.564 19.103 42.667 42.667 42.667s42.667-19.103 42.667-42.667zM256 128c-34.133 0-64 29.867-64 64s29.867 64 64 64 64-29.867 64-64-29.867-64-64-64zM256 213.333c-12.8 0-21.333-8.533-21.333-21.333s8.533-21.333 21.333-21.333 21.333 8.533 21.333 21.333-8.533 21.333-21.333 21.333zM469.333 192c0-23.564-19.103-42.667-42.667-42.667s-42.667 19.103-42.667 42.667c0 23.564 19.103 42.667 42.667 42.667s42.667-19.103 42.667-42.667zM426.667 128c-34.133 0-64 29.867-64 64s29.867 64 64 64 64-29.867 64-64-29.867-64-64-64zM426.667 213.333c-12.8 0-21.333-8.533-21.333-21.333s8.533-21.333 21.333-21.333 21.333 8.533 21.333 21.333-8.533 21.333-21.333 21.333zM469.333 362.667c0-23.564-19.103-42.667-42.667-42.667s-42.667 19.103-42.667 42.667c0 23.564 19.103 42.667 42.667 42.667s42.667-19.103 42.667-42.667zM426.667 298.667c-34.133 0-64 29.867-64 64s29.867 64 64 64 64-29.867 64-64-29.867-64-64-64zM426.667 384c-12.8 0-21.333-8.533-21.333-21.333s8.533-21.333 21.333-21.333 21.333 8.533 21.333 21.333-8.533 21.333-21.333 21.333zM640 362.667c0-23.564-19.103-42.667-42.667-42.667s-42.667 19.103-42.667 42.667c0 23.564 19.103 42.667 42.667 42.667s42.667-19.103 42.667-42.667zM597.333 298.667c-34.133 0-64 29.867-64 64s29.867 64 64 64 64-29.867 64-64-29.867-64-64-64zM597.333 384c-12.8 0-21.333-8.533-21.333-21.333s8.533-21.333 21.333-21.333 21.333 8.533 21.333 21.333-8.533 21.333-21.333 21.333zM640 192c0-23.564-19.103-42.667-42.667-42.667s-42.667 19.103-42.667 42.667c0 23.564 19.103 42.667 42.667 42.667s42.667-19.103 42.667-42.667zM597.333 128c-34.133 0-64 29.867-64 64s29.867 64 64 64 64-29.867 64-64-29.867-64-64-64zM597.333 213.333c-12.8 0-21.333-8.533-21.333-21.333s8.533-21.333 21.333-21.333 21.333 8.533 21.333 21.333-8.533 21.333-21.333 21.333zM810.667 192c0-23.564-19.103-42.667-42.667-42.667s-42.667 19.103-42.667 42.667c0 23.564 19.103 42.667 42.667 42.667s42.667-19.103 42.667-42.667zM768 128c-34.133 0-64 29.867-64 64s29.867 64 64 64 64-29.867 64-64-29.867-64-64-64zM768 213.333c-12.8 0-21.333-8.533-21.333-21.333s8.533-21.333 21.333-21.333 21.333 8.533 21.333 21.333-8.533 21.333-21.333 21.333zM810.667 362.667c0-23.564-19.103-42.667-42.667-42.667s-42.667 19.103-42.667 42.667c0 23.564 19.103 42.667 42.667 42.667s42.667-19.103 42.667-42.667zM768 298.667c-34.133 0-64 29.867-64 64s29.867 64 64 64 64-29.867 64-64-29.867-64-64-64zM768 384c-12.8 0-21.333-8.533-21.333-21.333s8.533-21.333 21.333-21.333 21.333 8.533 21.333 21.333-8.533 21.333-21.333 21.333z" />
<glyph unicode="&#xe91d;" glyph-name="camera" d="M878.933 21.333h-733.867c-81.067 0-145.067 64-145.067 145.067v392.533c0 81.067 64 145.067 145.067 145.067 25.6 0 46.933 12.8 59.733 34.133l25.6 55.467c25.6 51.2 76.8 81.067 132.267 81.067h298.667c55.467 0 106.667-29.867 132.267-81.067l25.6-55.467c12.8-21.333 34.133-34.133 55.467-34.133 85.333 0 149.333-64 149.333-145.067v-388.267c0-85.333-64-149.333-145.067-149.333zM362.667 789.333c-21.333 0-42.667-12.8-55.467-34.133l-25.6-55.467c-25.6-51.2-76.8-81.067-132.267-81.067-38.4 0-64-25.6-64-59.733v-388.267c0-38.4 25.6-64 59.733-64h729.6c34.133 0 59.733 25.6 59.733 59.733v392.533c4.267 34.133-21.333 59.733-55.467 59.733-59.733 0-106.667 29.867-132.267 81.067l-25.6 55.467c-17.067 21.333-38.4 34.133-59.733 34.133h-298.667zM512 192c-119.467 0-213.333 93.867-213.333 213.333s93.867 213.333 213.333 213.333 213.333-93.867 213.333-213.333-93.867-213.333-213.333-213.333zM512 533.333c-72.533 0-128-55.467-128-128s55.467-128 128-128 128 55.467 128 128-55.467 128-128 128z" />
<glyph unicode="&#xe91e;" glyph-name="car" d="M981.333 149.333h-938.667c-25.6 0-42.667 17.067-42.667 42.667v298.667c0 72.533 55.467 128 128 128h768c72.533 0 128-55.467 128-128v-298.667c0-25.6-17.067-42.667-42.667-42.667zM85.333 234.667h853.333v256c0 25.6-17.067 42.667-42.667 42.667h-768c-25.6 0-42.667-17.067-42.667-42.667v-256zM896 533.333h-768c-12.8 0-25.6 4.267-34.133 17.067-8.533 8.533-8.533 25.6-8.533 38.4l85.333 298.667c8.533 17.067 25.6 29.867 42.667 29.867h597.333c17.067 0 34.133-12.8 42.667-29.867l85.333-298.667c0-12.8 0-29.867-8.533-38.4-8.533-12.8-21.333-17.067-34.133-17.067zM183.467 618.667h652.8l-59.733 213.333h-529.067l-64-213.333zM256-21.333h-213.333c-25.6 0-42.667 17.067-42.667 42.667v170.667c0 25.6 17.067 42.667 42.667 42.667h213.333c25.6 0 42.667-17.067 42.667-42.667v-170.667c0-25.6-17.067-42.667-42.667-42.667zM85.333 64h128v85.333h-128v-85.333zM981.333-21.333h-213.333c-25.6 0-42.667 17.067-42.667 42.667v170.667c0 25.6 17.067 42.667 42.667 42.667h213.333c25.6 0 42.667-17.067 42.667-42.667v-170.667c0-25.6-17.067-42.667-42.667-42.667zM810.667 64h128v85.333h-128v-85.333zM294.4 273.067c-12.8 0-25.6 0-34.133 0s-17.067 0-21.333 0c-64 4.267-110.933 51.2-110.933 110.933s46.933 106.667 106.667 106.667c59.733 0 149.333-89.6 149.333-149.333 0-21.333-8.533-68.267-89.6-68.267zM234.667 405.333c-12.8 0-21.333-8.533-21.333-21.333s8.533-21.333 21.333-21.333c8.533 0 17.067 0 29.867 0 8.533 0 17.067 0 25.6 0-17.067 17.067-42.667 38.4-55.467 42.667zM729.6 273.067c0 0 0 0 0 0-81.067 0-89.6 46.933-89.6 68.267 0 59.733 89.6 149.333 149.333 149.333s106.667-46.933 106.667-106.667-46.933-106.667-106.667-106.667c-8.533 0-12.8 0-21.333 0-12.8 0-25.6-4.267-38.4-4.267zM789.333 405.333c-12.8-4.267-38.4-25.6-51.2-46.933 8.533 0 17.067 0 25.6 0s21.333 0 29.867 0c12.8 0 21.333 8.533 21.333 21.333s-12.8 25.6-25.6 25.6zM106.667 576c-59.733 0-106.667 46.933-106.667 106.667s46.933 106.667 106.667 106.667c42.667 0 81.067-25.6 98.133-64 8.533-21.333 0-46.933-21.333-55.467-4.267-4.267-8.533-4.267-12.8-4.267 0-4.267 4.267-4.267 8.533-8.533 12.8-21.333 8.533-46.933-8.533-59.733s-42.667-21.333-64-21.333zM106.667 704c-12.8 0-21.333-8.533-21.333-21.333s8.533-21.333 21.333-21.333c4.267 0 8.533 0 12.8 4.267 8.533 4.267 12.8 8.533 21.333 8.533-8.533 4.267-12.8 8.533-12.8 17.067-4.267 8.533-12.8 12.8-21.333 12.8zM917.333 576c-21.333 0-46.933 8.533-64 21.333s-21.333 42.667-8.533 59.733c4.267 4.267 8.533 4.267 8.533 8.533-4.267 0-8.533 0-12.8 4.267-21.333 8.533-34.133 34.133-21.333 55.467 17.067 38.4 55.467 64 98.133 64 59.733 0 106.667-46.933 106.667-106.667s-46.933-106.667-106.667-106.667zM883.2 674.133c8.533 0 17.067-4.267 21.333-8.533s8.533-4.267 12.8-4.267c12.8 0 21.333 8.533 21.333 21.333s-8.533 21.333-21.333 21.333c-8.533 0-17.067-4.267-21.333-12.8 0-8.533-4.267-12.8-12.8-17.067z" />
<glyph unicode="&#xe91f;" glyph-name="card" d="M981.333 106.667h-938.667c-25.6 0-42.667 17.067-42.667 42.667v597.333c0 25.6 17.067 42.667 42.667 42.667h938.667c25.6 0 42.667-17.067 42.667-42.667v-597.333c0-25.6-17.067-42.667-42.667-42.667zM85.333 192h853.333v512h-853.333v-512zM981.333 533.333h-938.667c-25.6 0-42.667 17.067-42.667 42.667s17.067 42.667 42.667 42.667h938.667c25.6 0 42.667-17.067 42.667-42.667s-17.067-42.667-42.667-42.667zM981.333 448h-938.667c-25.6 0-42.667 17.067-42.667 42.667s17.067 42.667 42.667 42.667h938.667c25.6 0 42.667-17.067 42.667-42.667s-17.067-42.667-42.667-42.667z" />
<glyph unicode="&#xe920;" glyph-name="chat" d="M456.533 106.667c-21.333 0-42.667 17.067-42.667 38.4 0 25.6 17.067 42.667 38.4 46.933 179.2 12.8 315.733 162.133 315.733 341.333 0 187.733-153.6 341.333-341.333 341.333s-341.333-153.6-341.333-341.333c0-132.267 76.8-251.733 196.267-307.2 21.333-8.533 29.867-34.133 21.333-55.467s-34.133-29.867-55.467-21.333c-149.333 68.267-247.467 217.6-247.467 384 0 234.667 192 426.667 426.667 426.667s426.667-192 426.667-426.667c0-221.867-174.933-409.6-396.8-426.667 0 0 0 0 0 0zM213.333-64c-17.067 0-34.133 12.8-38.4 29.867s0 38.4 17.067 46.933c8.533 8.533 93.867 76.8 42.667 149.333-12.8 17.067-8.533 46.933 8.533 59.733 12.8 12.8 38.4 8.533 55.467-8.533 42.667-59.733 42.667-119.467 21.333-170.667 42.667 21.333 76.8 64 93.867 119.467 8.533 21.333 29.867 34.133 55.467 29.867 21.333-8.533 34.133-29.867 29.867-51.2-25.6-76.8-93.867-204.8-285.867-204.8zM725.333 51.2c-4.267 0-4.267 0 0 0-85.333 4.267-153.6 38.4-200.533 93.867-17.067 17.067-12.8 46.933 4.267 59.733 17.067 17.067 46.933 12.8 59.733-4.267 34.133-38.4 76.8-59.733 136.533-64 25.6 0 42.667-21.333 38.4-46.933 0-21.333-17.067-38.4-38.4-38.4zM849.067 64c-17.067 0-29.867 8.533-38.4 25.6-8.533 21.333 0 46.933 21.333 55.467 68.267 29.867 110.933 98.133 110.933 174.933 0 85.333-55.467 162.133-140.8 183.467-21.333 8.533-34.133 29.867-29.867 51.2s29.867 34.133 51.2 29.867c119.467-34.133 200.533-145.067 200.533-268.8 0-106.667-64-204.8-157.867-251.733-8.533 0-12.8 0-17.067 0zM878.933-64c-93.867 0-162.133 51.2-187.733 136.533-8.533 21.333 4.267 46.933 29.867 51.2 21.333 8.533 46.933-4.267 55.467-29.867 4.267-12.8 8.533-25.6 17.067-38.4 0 21.333 8.533 46.933 25.6 72.533 12.8 17.067 42.667 21.333 59.733 8.533s21.333-42.667 8.533-59.733c-25.6-34.133 17.067-64 21.333-68.267 12.8-12.8 21.333-29.867 17.067-46.933-12.8-12.8-29.867-25.6-46.933-25.6zM597.333 576h-341.333c-25.6 0-42.667 17.067-42.667 42.667s17.067 42.667 42.667 42.667h341.333c25.6 0 42.667-17.067 42.667-42.667s-17.067-42.667-42.667-42.667zM512 405.333h-256c-25.6 0-42.667 17.067-42.667 42.667s17.067 42.667 42.667 42.667h256c25.6 0 42.667-17.067 42.667-42.667s-17.067-42.667-42.667-42.667z" />
<glyph unicode="&#xe921;" glyph-name="circlebottomleft" d="M512-64c-136.533 0-264.533 51.2-362.667 149.333-200.533 200.533-200.533 524.8 0 725.333 98.133 98.133 226.133 149.333 362.667 149.333s264.533-51.2 362.667-149.333c200.533-200.533 200.533-524.8 0-725.333-98.133-98.133-226.133-149.333-362.667-149.333zM512 874.667c-115.2 0-221.867-42.667-302.933-123.733-166.4-166.4-166.4-439.467 0-605.867 81.067-81.067 187.733-123.733 302.933-123.733s221.867 42.667 302.933 123.733c166.4 166.4 166.4 435.2 0 601.6-81.067 85.333-187.733 128-302.933 128zM554.667 277.333h-170.667c-25.6 0-42.667 17.067-42.667 42.667s17.067 42.667 42.667 42.667h170.667c25.6 0 42.667-17.067 42.667-42.667s-17.067-42.667-42.667-42.667zM384 277.333c-25.6 0-42.667 17.067-42.667 42.667v170.667c0 25.6 17.067 42.667 42.667 42.667s42.667-17.067 42.667-42.667v-170.667c0-25.6-17.067-42.667-42.667-42.667zM392.533 285.867c-12.8 0-21.333 4.267-29.867 12.8-17.067 17.067-17.067 42.667 0 59.733l243.2 243.2c17.067 17.067 42.667 17.067 59.733 0s17.067-42.667 0-59.733l-243.2-243.2c-8.533-8.533-21.333-12.8-29.867-12.8z" />
<glyph unicode="&#xe922;" glyph-name="circlebottomright" d="M512-64c-136.533 0-264.533 51.2-362.667 149.333-200.533 200.533-200.533 524.8 0 725.333 98.133 98.133 226.133 149.333 362.667 149.333s264.533-51.2 362.667-149.333c200.533-200.533 200.533-524.8 0-725.333-98.133-98.133-226.133-149.333-362.667-149.333zM512 874.667c-115.2 0-221.867-42.667-302.933-123.733-166.4-166.4-166.4-439.467 0-605.867 81.067-81.067 187.733-123.733 302.933-123.733s221.867 42.667 302.933 123.733c166.4 166.4 166.4 435.2 0 601.6-81.067 85.333-187.733 128-302.933 128zM640 277.333c-25.6 0-42.667 17.067-42.667 42.667v170.667c0 25.6 17.067 42.667 42.667 42.667s42.667-17.067 42.667-42.667v-170.667c0-25.6-17.067-42.667-42.667-42.667zM640 277.333h-170.667c-25.6 0-42.667 17.067-42.667 42.667s17.067 42.667 42.667 42.667h170.667c25.6 0 42.667-17.067 42.667-42.667s-17.067-42.667-42.667-42.667zM631.467 285.867c-12.8 0-21.333 4.267-29.867 12.8l-238.933 238.933c-17.067 17.067-17.067 42.667 0 59.733s42.667 17.067 59.733 0l243.2-243.2c17.067-17.067 17.067-42.667 0-59.733-12.8-4.267-21.333-8.533-34.133-8.533z" />
<glyph unicode="&#xe923;" glyph-name="circledown" d="M512-64c-281.6 0-512 230.4-512 512s230.4 512 512 512 512-230.4 512-512-230.4-512-512-512zM512 874.667c-234.667 0-426.667-192-426.667-426.667s192-426.667 426.667-426.667 426.667 192 426.667 426.667-192 426.667-426.667 426.667zM512 234.667c-12.8 0-21.333 4.267-29.867 12.8-17.067 17.067-17.067 42.667 0 59.733l128 128c17.067 17.067 42.667 17.067 59.733 0s17.067-42.667 0-59.733l-128-128c-8.533-8.533-17.067-12.8-29.867-12.8zM512 234.667c-12.8 0-21.333 4.267-29.867 12.8l-128 128c-17.067 17.067-17.067 42.667 0 59.733s42.667 17.067 59.733 0l128-128c17.067-17.067 17.067-42.667 0-59.733-8.533-8.533-17.067-12.8-29.867-12.8zM512 234.667c-25.6 0-42.667 17.067-42.667 42.667v341.333c0 25.6 17.067 42.667 42.667 42.667s42.667-17.067 42.667-42.667v-341.333c0-25.6-17.067-42.667-42.667-42.667z" />
<glyph unicode="&#xe924;" glyph-name="circleleft" d="M512-64c-281.6 0-512 230.4-512 512s230.4 512 512 512 512-230.4 512-512-230.4-512-512-512zM512 874.667c-234.667 0-426.667-192-426.667-426.667s192-426.667 426.667-426.667 426.667 192 426.667 426.667-192 426.667-426.667 426.667zM469.333 277.333c-12.8 0-21.333 4.267-29.867 12.8l-128 128c-17.067 17.067-17.067 42.667 0 59.733s42.667 17.067 59.733 0l128-128c17.067-17.067 17.067-42.667 0-59.733-8.533-8.533-17.067-12.8-29.867-12.8zM341.333 405.333c-12.8 0-21.333 4.267-29.867 12.8-17.067 17.067-17.067 42.667 0 59.733l128 128c17.067 17.067 42.667 17.067 59.733 0s17.067-42.667 0-59.733l-128-128c-8.533-8.533-17.067-12.8-29.867-12.8zM682.667 405.333h-341.333c-25.6 0-42.667 17.067-42.667 42.667s17.067 42.667 42.667 42.667h341.333c25.6 0 42.667-17.067 42.667-42.667s-17.067-42.667-42.667-42.667z" />
<glyph unicode="&#xe925;" glyph-name="circleright" d="M512-64c-281.6 0-512 230.4-512 512s230.4 512 512 512 512-230.4 512-512-230.4-512-512-512zM512 874.667c-234.667 0-426.667-192-426.667-426.667s192-426.667 426.667-426.667 426.667 192 426.667 426.667-192 426.667-426.667 426.667zM682.667 405.333c-12.8 0-21.333 4.267-29.867 12.8l-128 128c-17.067 17.067-17.067 42.667 0 59.733s42.667 17.067 59.733 0l128-128c17.067-17.067 17.067-42.667 0-59.733-8.533-8.533-17.067-12.8-29.867-12.8zM554.667 277.333c-12.8 0-21.333 4.267-29.867 12.8-17.067 17.067-17.067 42.667 0 59.733l128 128c17.067 17.067 42.667 17.067 59.733 0s17.067-42.667 0-59.733l-128-128c-8.533-8.533-17.067-12.8-29.867-12.8zM682.667 405.333h-341.333c-25.6 0-42.667 17.067-42.667 42.667s17.067 42.667 42.667 42.667h341.333c25.6 0 42.667-17.067 42.667-42.667s-17.067-42.667-42.667-42.667z" />
<glyph unicode="&#xe926;" glyph-name="circletopleft" d="M512-64c-136.533 0-264.533 51.2-362.667 149.333-200.533 200.533-200.533 524.8 0 725.333 98.133 98.133 226.133 149.333 362.667 149.333s264.533-51.2 362.667-149.333c200.533-200.533 200.533-524.8 0-725.333-98.133-98.133-226.133-149.333-362.667-149.333zM512 874.667c-115.2 0-221.867-42.667-302.933-123.733-166.4-166.4-166.4-439.467 0-605.867 81.067-81.067 187.733-123.733 302.933-123.733s221.867 42.667 302.933 123.733c166.4 166.4 166.4 435.2 0 601.6-81.067 85.333-187.733 128-302.933 128zM384 362.667c-25.6 0-42.667 17.067-42.667 42.667v170.667c0 25.6 17.067 42.667 42.667 42.667s42.667-17.067 42.667-42.667v-170.667c0-25.6-17.067-42.667-42.667-42.667zM554.667 533.333h-170.667c-25.6 0-42.667 17.067-42.667 42.667s17.067 42.667 42.667 42.667h170.667c25.6 0 42.667-17.067 42.667-42.667s-17.067-42.667-42.667-42.667zM631.467 285.867c-12.8 0-21.333 4.267-29.867 12.8l-238.933 238.933c-17.067 17.067-17.067 42.667 0 59.733s42.667 17.067 59.733 0l243.2-243.2c17.067-17.067 17.067-42.667 0-59.733-12.8-4.267-21.333-8.533-34.133-8.533z" />
<glyph unicode="&#xe927;" glyph-name="circletopright" d="M554.667-64c-136.533 0-264.533 51.2-362.667 149.333-200.533 200.533-200.533 524.8 0 725.333 98.133 98.133 226.133 149.333 362.667 149.333s264.533-51.2 362.667-149.333c200.533-200.533 200.533-524.8 0-725.333-98.133-98.133-226.133-149.333-362.667-149.333zM554.667 874.667c-115.2 0-221.867-42.667-302.933-123.733-166.4-166.4-166.4-439.467 0-605.867 81.067-81.067 187.733-123.733 302.933-123.733s221.867 42.667 302.933 123.733c166.4 166.4 166.4 435.2 0 601.6-81.067 85.333-187.733 128-302.933 128zM682.667 533.333h-170.667c-25.6 0-42.667 17.067-42.667 42.667s17.067 42.667 42.667 42.667h170.667c25.6 0 42.667-17.067 42.667-42.667s-17.067-42.667-42.667-42.667zM682.667 362.667c-25.6 0-42.667 17.067-42.667 42.667v170.667c0 25.6 17.067 42.667 42.667 42.667s42.667-17.067 42.667-42.667v-170.667c0-25.6-17.067-42.667-42.667-42.667zM435.2 285.867c-12.8 0-21.333 4.267-29.867 12.8-17.067 17.067-17.067 42.667 0 59.733l243.2 243.2c17.067 17.067 42.667 17.067 59.733 0s17.067-42.667 0-59.733l-243.2-243.2c-8.533-8.533-21.333-12.8-29.867-12.8z" />
<glyph unicode="&#xe928;" glyph-name="circleup" d="M512-64c-281.6 0-512 230.4-512 512s230.4 512 512 512c281.6 0 512-230.4 512-512s-230.4-512-512-512zM512 874.667c-234.667 0-426.667-192-426.667-426.667s192-426.667 426.667-426.667c234.667 0 426.667 192 426.667 426.667s-192 426.667-426.667 426.667zM384 448c-12.8 0-21.333 4.267-29.867 12.8-17.067 17.067-17.067 42.667 0 59.733l128 128c17.067 17.067 42.667 17.067 59.733 0s17.067-42.667 0-59.733l-128-128c-8.533-8.533-17.067-12.8-29.867-12.8zM640 448c-12.8 0-21.333 4.267-29.867 12.8l-128 128c-17.067 17.067-17.067 42.667 0 59.733s42.667 17.067 59.733 0l128-128c17.067-17.067 17.067-42.667 0-59.733-8.533-8.533-17.067-12.8-29.867-12.8zM512 234.667c-25.6 0-42.667 17.067-42.667 42.667v341.333c0 25.6 17.067 42.667 42.667 42.667s42.667-17.067 42.667-42.667v-341.333c0-25.6-17.067-42.667-42.667-42.667z" />
<glyph unicode="&#xe929;" glyph-name="clock" d="M512-64c-281.6 0-512 230.4-512 512s230.4 512 512 512 512-230.4 512-512-230.4-512-512-512zM512 874.667c-234.667 0-426.667-192-426.667-426.667s192-426.667 426.667-426.667 426.667 192 426.667 426.667-192 426.667-426.667 426.667zM512 405.333c-25.6 0-42.667 17.067-42.667 42.667v298.667c0 25.6 17.067 42.667 42.667 42.667s42.667-17.067 42.667-42.667v-298.667c0-25.6-17.067-42.667-42.667-42.667zM682.667 234.667c-12.8 0-21.333 4.267-29.867 12.8l-170.667 170.667c-17.067 17.067-17.067 42.667 0 59.733s42.667 17.067 59.733 0l170.667-170.667c17.067-17.067 17.067-42.667 0-59.733-8.533-8.533-17.067-12.8-29.867-12.8z" />
<glyph unicode="&#xe92a;" glyph-name="cloud" d="M213.333 448c-25.6 0-42.667 17.067-42.667 42.667 0 166.4 132.267 298.667 298.667 298.667 128 0 243.2-85.333 285.867-209.067 8.533-21.333-4.267-46.933-25.6-55.467s-46.933 4.267-55.467 25.6c-29.867 93.867-110.933 153.6-204.8 153.6-119.467 0-213.333-93.867-213.333-213.333 0-25.6-17.067-42.667-42.667-42.667zM768 106.667c-25.6 0-42.667 17.067-42.667 42.667s17.067 42.667 42.667 42.667c93.867 0 170.667 76.8 170.667 170.667s-76.8 170.667-170.667 170.667c-12.8 0-29.867 0-42.667-4.267-21.333-4.267-46.933 8.533-51.2 29.867s8.533 46.933 29.867 51.2c21.333 4.267 42.667 8.533 64 8.533 140.8 0 256-115.2 256-256s-115.2-256-256-256zM682.667 106.667h-469.333c-25.6 0-42.667 17.067-42.667 42.667s17.067 42.667 42.667 42.667h469.333c25.6 0 42.667-17.067 42.667-42.667s-17.067-42.667-42.667-42.667zM768 106.667h-85.333c-25.6 0-42.667 17.067-42.667 42.667s17.067 42.667 42.667 42.667h85.333c25.6 0 42.667-17.067 42.667-42.667s-17.067-42.667-42.667-42.667zM213.333 106.667c-119.467 0-213.333 93.867-213.333 213.333s93.867 213.333 213.333 213.333c25.6 0 42.667-17.067 42.667-42.667s-17.067-42.667-42.667-42.667c-72.533 0-128-55.467-128-128s55.467-128 128-128c25.6 0 42.667-17.067 42.667-42.667s-17.067-42.667-42.667-42.667z" />
<glyph unicode="&#xe92b;" glyph-name="cmd" d="M213.333 533.333c-119.467 0-213.333 93.867-213.333 213.333s93.867 213.333 213.333 213.333 213.333-93.867 213.333-213.333c0-25.6-17.067-42.667-42.667-42.667s-42.667 17.067-42.667 42.667c0 72.533-55.467 128-128 128s-128-55.467-128-128 55.467-128 128-128c25.6 0 42.667-17.067 42.667-42.667s-17.067-42.667-42.667-42.667zM810.667 533.333c-25.6 0-42.667 17.067-42.667 42.667s17.067 42.667 42.667 42.667c72.533 0 128 55.467 128 128s-55.467 128-128 128-128-55.467-128-128c0-25.6-17.067-42.667-42.667-42.667s-42.667 17.067-42.667 42.667c0 119.467 93.867 213.333 213.333 213.333s213.333-93.867 213.333-213.333-93.867-213.333-213.333-213.333zM213.333-64c-119.467 0-213.333 93.867-213.333 213.333s93.867 213.333 213.333 213.333c25.6 0 42.667-17.067 42.667-42.667s-17.067-42.667-42.667-42.667c-72.533 0-128-55.467-128-128s55.467-128 128-128 128 55.467 128 128c0 25.6 17.067 42.667 42.667 42.667s42.667-17.067 42.667-42.667c0-119.467-93.867-213.333-213.333-213.333zM810.667-64c-119.467 0-213.333 93.867-213.333 213.333 0 25.6 17.067 42.667 42.667 42.667s42.667-17.067 42.667-42.667c0-72.533 55.467-128 128-128s128 55.467 128 128-55.467 128-128 128c-25.6 0-42.667 17.067-42.667 42.667s17.067 42.667 42.667 42.667c119.467 0 213.333-93.867 213.333-213.333s-93.867-213.333-213.333-213.333zM384 106.667c-25.6 0-42.667 17.067-42.667 42.667v597.333c0 25.6 17.067 42.667 42.667 42.667s42.667-17.067 42.667-42.667v-597.333c0-25.6-17.067-42.667-42.667-42.667zM640 106.667c-25.6 0-42.667 17.067-42.667 42.667v597.333c0 25.6 17.067 42.667 42.667 42.667s42.667-17.067 42.667-42.667v-597.333c0-25.6-17.067-42.667-42.667-42.667zM810.667 533.333h-597.333c-25.6 0-42.667 17.067-42.667 42.667s17.067 42.667 42.667 42.667h597.333c25.6 0 42.667-17.067 42.667-42.667s-17.067-42.667-42.667-42.667zM810.667 277.333h-597.333c-25.6 0-42.667 17.067-42.667 42.667s17.067 42.667 42.667 42.667h597.333c25.6 0 42.667-17.067 42.667-42.667s-17.067-42.667-42.667-42.667z" />
<glyph unicode="&#xe92c;" glyph-name="collapse" d="M341.333 576h-170.667c-25.6 0-42.667 17.067-42.667 42.667s17.067 42.667 42.667 42.667h170.667c25.6 0 42.667-17.067 42.667-42.667s-17.067-42.667-42.667-42.667zM341.333 576c-25.6 0-42.667 17.067-42.667 42.667v170.667c0 25.6 17.067 42.667 42.667 42.667s42.667-17.067 42.667-42.667v-170.667c0-25.6-17.067-42.667-42.667-42.667zM341.333 576c-12.8 0-21.333 4.267-29.867 12.8l-298.667 298.667c-17.067 17.067-17.067 42.667 0 59.733s42.667 17.067 59.733 0l298.667-298.667c17.067-17.067 17.067-42.667 0-59.733-8.533-8.533-17.067-12.8-29.867-12.8zM853.333 576h-170.667c-25.6 0-42.667 17.067-42.667 42.667s17.067 42.667 42.667 42.667h170.667c25.6 0 42.667-17.067 42.667-42.667s-17.067-42.667-42.667-42.667zM682.667 576c-25.6 0-42.667 17.067-42.667 42.667v170.667c0 25.6 17.067 42.667 42.667 42.667s42.667-17.067 42.667-42.667v-170.667c0-25.6-17.067-42.667-42.667-42.667zM682.667 576c-12.8 0-21.333 4.267-29.867 12.8-17.067 17.067-17.067 42.667 0 59.733l298.667 298.667c17.067 17.067 42.667 17.067 59.733 0s17.067-42.667 0-59.733l-298.667-298.667c-8.533-8.533-17.067-12.8-29.867-12.8zM341.333 234.667h-170.667c-25.6 0-42.667 17.067-42.667 42.667s17.067 42.667 42.667 42.667h170.667c25.6 0 42.667-17.067 42.667-42.667s-17.067-42.667-42.667-42.667zM341.333 64c-25.6 0-42.667 17.067-42.667 42.667v170.667c0 25.6 17.067 42.667 42.667 42.667s42.667-17.067 42.667-42.667v-170.667c0-25.6-17.067-42.667-42.667-42.667zM42.667-64c-12.8 0-21.333 4.267-29.867 12.8-17.067 17.067-17.067 42.667 0 59.733l298.667 298.667c17.067 17.067 42.667 17.067 59.733 0s17.067-42.667 0-59.733l-298.667-298.667c-8.533-8.533-17.067-12.8-29.867-12.8zM853.333 234.667h-170.667c-25.6 0-42.667 17.067-42.667 42.667s17.067 42.667 42.667 42.667h170.667c25.6 0 42.667-17.067 42.667-42.667s-17.067-42.667-42.667-42.667zM682.667 64c-25.6 0-42.667 17.067-42.667 42.667v170.667c0 25.6 17.067 42.667 42.667 42.667s42.667-17.067 42.667-42.667v-170.667c0-25.6-17.067-42.667-42.667-42.667zM981.333-64c-12.8 0-21.333 4.267-29.867 12.8l-298.667 298.667c-17.067 17.067-17.067 42.667 0 59.733s42.667 17.067 59.733 0l298.667-298.667c17.067-17.067 17.067-42.667 0-59.733-8.533-8.533-17.067-12.8-29.867-12.8z" />
<glyph unicode="&#xe92d;" glyph-name="comment" d="M853.333 106.667h-170.667c-25.6 0-42.667 17.067-42.667 42.667s17.067 42.667 42.667 42.667h170.667c46.933 0 85.333 38.4 85.333 85.333v512c0 46.933-38.4 85.333-85.333 85.333h-682.667c-46.933 0-85.333-38.4-85.333-85.333v-512c0-46.933 38.4-85.333 85.333-85.333h170.667c25.6 0 42.667-17.067 42.667-42.667s-17.067-42.667-42.667-42.667h-170.667c-93.867 0-170.667 76.8-170.667 170.667v512c0 93.867 76.8 170.667 170.667 170.667h682.667c93.867 0 170.667-76.8 170.667-170.667v-512c0-93.867-76.8-170.667-170.667-170.667zM512-64c-12.8 0-21.333 4.267-29.867 12.8l-170.667 170.667c-17.067 17.067-17.067 42.667 0 59.733s42.667 17.067 59.733 0l140.8-140.8 140.8 140.8c17.067 17.067 42.667 17.067 59.733 0s17.067-42.667 0-59.733l-170.667-170.667c-8.533-8.533-17.067-12.8-29.867-12.8zM768 661.333h-512c-25.6 0-42.667 17.067-42.667 42.667s17.067 42.667 42.667 42.667h512c25.6 0 42.667-17.067 42.667-42.667s-17.067-42.667-42.667-42.667zM554.667 490.667h-298.667c-25.6 0-42.667 17.067-42.667 42.667s17.067 42.667 42.667 42.667h298.667c25.6 0 42.667-17.067 42.667-42.667s-17.067-42.667-42.667-42.667zM682.667 320h-426.667c-25.6 0-42.667 17.067-42.667 42.667s17.067 42.667 42.667 42.667h426.667c25.6 0 42.667-17.067 42.667-42.667s-17.067-42.667-42.667-42.667z" />
<glyph unicode="&#xe92e;" glyph-name="contrast" d="M981.333 448c0-260.267-170.667-469.333-469.333-469.333v938.667c298.667 0 469.333-209.067 469.333-469.333zM512-64c-25.6 0-42.667 17.067-42.667 42.667v938.667c0 25.6 17.067 42.667 42.667 42.667 302.933 0 512-209.067 512-512s-209.067-512-512-512zM554.667 874.667v-853.333c264.533 21.333 384 221.867 384 426.667s-119.467 405.333-384 426.667zM512-64c-281.6 0-512 230.4-512 512s230.4 512 512 512c25.6 0 42.667-17.067 42.667-42.667v-938.667c0-25.6-17.067-42.667-42.667-42.667zM469.333 874.667c-213.333-25.6-384-204.8-384-426.667s170.667-401.067 384-426.667v853.333z" />
<glyph unicode="&#xe92f;" glyph-name="cornerarrow" d="M768 448c-12.8 0-21.333 4.267-29.867 12.8-17.067 17.067-17.067 42.667 0 59.733l213.333 213.333c17.067 17.067 42.667 17.067 59.733 0s17.067-42.667 0-59.733l-213.333-213.333c-8.533-8.533-17.067-12.8-29.867-12.8zM981.333 661.333c-12.8 0-21.333 4.267-29.867 12.8l-213.333 213.333c-17.067 17.067-17.067 42.667 0 59.733s42.667 17.067 59.733 0l213.333-213.333c17.067-17.067 17.067-42.667 0-59.733-8.533-8.533-17.067-12.8-29.867-12.8zM256-64c-12.8 0-21.333 4.267-29.867 12.8l-213.333 213.333c-17.067 17.067-17.067 42.667 0 59.733s42.667 17.067 59.733 0l213.333-213.333c17.067-17.067 17.067-42.667 0-59.733-8.533-8.533-17.067-12.8-29.867-12.8zM256-64c-12.8 0-21.333 4.267-29.867 12.8-17.067 17.067-17.067 42.667 0 59.733l213.333 213.333c17.067 17.067 42.667 17.067 59.733 0s17.067-42.667 0-59.733l-213.333-213.333c-8.533-8.533-17.067-12.8-29.867-12.8zM256-64c-25.6 0-42.667 17.067-42.667 42.667v469.333c0 166.4 132.267 298.667 298.667 298.667h469.333c25.6 0 42.667-17.067 42.667-42.667s-17.067-42.667-42.667-42.667h-469.333c-119.467 0-213.333-93.867-213.333-213.333v-469.333c0-25.6-17.067-42.667-42.667-42.667z" />
<glyph unicode="&#xe930;" glyph-name="cube" d="M512 533.333c-4.267 0-8.533 0-12.8 4.267l-469.333 170.667c-17.067 4.267-29.867 21.333-29.867 38.4s12.8 34.133 29.867 38.4l469.333 170.667c8.533 4.267 21.333 4.267 29.867 0l469.333-170.667c12.8-4.267 25.6-21.333 25.6-38.4s-12.8-34.133-29.867-38.4l-469.333-170.667c-4.267-4.267-8.533-4.267-12.8-4.267zM166.4 746.667l345.6-123.733 345.6 123.733-345.6 123.733-345.6-123.733zM512-64c-4.267 0-8.533 0-12.8 4.267l-469.333 170.667c-21.333 8.533-34.133 34.133-25.6 55.467s34.133 34.133 55.467 25.6l452.267-166.4 456.533 166.4c21.333 8.533 46.933-4.267 55.467-25.6s-4.267-46.933-25.6-55.467l-469.333-170.667c-8.533-4.267-12.8-4.267-17.067-4.267zM512-64c-25.6 0-42.667 17.067-42.667 42.667v597.333c0 25.6 17.067 42.667 42.667 42.667s42.667-17.067 42.667-42.667v-597.333c0-25.6-17.067-42.667-42.667-42.667zM981.333 106.667c-25.6 0-42.667 17.067-42.667 42.667v597.333c0 25.6 17.067 42.667 42.667 42.667s42.667-17.067 42.667-42.667v-597.333c0-25.6-17.067-42.667-42.667-42.667zM42.667 106.667c-25.6 0-42.667 17.067-42.667 42.667v597.333c0 25.6 17.067 42.667 42.667 42.667s42.667-17.067 42.667-42.667v-597.333c0-25.6-17.067-42.667-42.667-42.667z" />
<glyph unicode="&#xe931;" glyph-name="cup" d="M597.333 234.667h-170.667c-140.8 0-256 115.2-256 256v298.667c0 25.6 17.067 42.667 42.667 42.667h597.333c25.6 0 42.667-17.067 42.667-42.667v-298.667c0-140.8-115.2-256-256-256zM256 746.667v-256c0-93.867 76.8-170.667 170.667-170.667h170.667c93.867 0 170.667 76.8 170.667 170.667v256h-512zM810.667 64h-597.333c-25.6 0-42.667 17.067-42.667 42.667s17.067 42.667 42.667 42.667h597.333c25.6 0 42.667-17.067 42.667-42.667s-17.067-42.667-42.667-42.667zM832 469.333h-21.333c-25.6 0-42.667 17.067-42.667 42.667v277.333c0 25.6 17.067 42.667 42.667 42.667h85.333c72.533 0 128-55.467 128-128v-42.667c0-106.667-85.333-192-192-192zM853.333 746.667v-187.733c46.933 8.533 85.333 51.2 85.333 102.4v42.667c0 25.6-17.067 42.667-42.667 42.667h-42.667z" />
<glyph unicode="&#xe932;" glyph-name="cursor" d="M597.333-21.333c0 0 0 0 0 0-17.067 0-34.133 12.8-38.4 29.867l-98.133 294.4c-8.533 21.333 4.267 46.933 25.6 55.467s46.933-4.267 55.467-25.6l59.733-183.467 260.267 652.8-652.8-264.533 183.467-59.733c21.333-8.533 34.133-29.867 25.6-55.467-8.533-21.333-29.867-34.133-55.467-25.6l-294.4 98.133c-12.8 4.267-25.6 21.333-25.6 38.4s8.533 34.133 25.6 42.667l853.333 341.333c17.067 4.267 34.133 0 46.933-12.8s17.067-29.867 8.533-46.933l-341.333-853.333c-4.267-17.067-21.333-25.6-38.4-25.6zM170.667-21.333c-34.133 0-64 12.8-89.6 38.4-51.2 51.2-51.2 132.267 0 179.2l268.8 268.8c17.067 17.067 42.667 17.067 59.733 0s17.067-42.667 0-59.733l-268.8-268.8c-8.533-8.533-12.8-17.067-12.8-29.867s4.267-21.333 12.8-29.867c17.067-17.067 42.667-17.067 59.733 0l268.8 268.8c17.067 17.067 42.667 17.067 59.733 0s17.067-42.667 0-59.733l-268.8-268.8c-25.6-25.6-55.467-38.4-89.6-38.4z" />
<glyph unicode="&#xe933;" glyph-name="desktop" d="M861.867 106.667h-699.733c-89.6 0-162.133 72.533-162.133 162.133v529.067c0 89.6 72.533 162.133 162.133 162.133h695.467c93.867 0 166.4-72.533 166.4-162.133v-524.8c0-93.867-72.533-166.4-162.133-166.4zM162.133 874.667c-42.667 0-76.8-34.133-76.8-76.8v-524.8c0-42.667 34.133-76.8 76.8-76.8h695.467c42.667 0 76.8 34.133 76.8 76.8v524.8c0 42.667-34.133 76.8-76.8 76.8h-695.467zM42.667 362.667h938.667v-85.333h-938.667v85.333zM682.667-64h-341.333c-25.6 0-42.667 17.067-42.667 42.667s17.067 42.667 42.667 42.667h341.333c25.6 0 42.667-17.067 42.667-42.667s-17.067-42.667-42.667-42.667zM341.333-64c-25.6 0-42.667 17.067-42.667 42.667s17.067 42.667 42.667 42.667c8.533 0 42.667 42.667 42.667 128 0 25.6 17.067 42.667 42.667 42.667s42.667-17.067 42.667-42.667c0-123.733-55.467-213.333-128-213.333zM682.667-64c-72.533 0-128 89.6-128 213.333 0 25.6 17.067 42.667 42.667 42.667s42.667-17.067 42.667-42.667c0-85.333 34.133-128 42.667-128 25.6 0 42.667-17.067 42.667-42.667s-17.067-42.667-42.667-42.667z" />
<glyph unicode="&#xe934;" glyph-name="disk" d="M179.2 72.533c-12.8 0-21.333 4.267-29.867 12.8-17.067 17.067-17.067 42.667 0 59.733l243.2 243.2c17.067 17.067 42.667 17.067 59.733 0s17.067-42.667 0-59.733l-243.2-243.2c-8.533-8.533-17.067-12.8-29.867-12.8zM601.6 494.933c-12.8 0-21.333 4.267-29.867 12.8-17.067 17.067-17.067 42.667 0 59.733l243.2 243.2c17.067 17.067 42.667 17.067 59.733 0s17.067-42.667 0-59.733l-243.2-243.2c-8.533-8.533-17.067-12.8-29.867-12.8zM635.733 435.2c-17.067 0-38.4 12.8-42.667 34.133s8.533 46.933 29.867 51.2l332.8 81.067c21.333 4.267 46.933-8.533 51.2-29.867s-8.533-46.933-29.867-51.2l-332.8-81.067c0-4.267-4.267-4.267-8.533-4.267zM477.867-64c-4.267 0-4.267 0 0 0-25.6 0-42.667 21.333-42.667 46.933l25.6 341.333c0 21.333 21.333 42.667 46.933 38.4 25.6 0 42.667-21.333 38.4-46.933l-25.6-341.333c-4.267-21.333-21.333-38.4-42.667-38.4zM409.6 482.133c-8.533 0-17.067 4.267-25.6 8.533l-277.333 200.533c-17.067 12.8-21.333 38.4-8.533 59.733s42.667 21.333 59.733 8.533l277.333-200.533c17.067-12.8 21.333-42.667 8.533-59.733-8.533-12.8-21.333-17.067-34.133-17.067zM512-64c-281.6 0-512 230.4-512 512s230.4 512 512 512 512-230.4 512-512-230.4-512-512-512zM512 874.667c-234.667 0-426.667-192-426.667-426.667s192-426.667 426.667-426.667 426.667 192 426.667 426.667-192 426.667-426.667 426.667zM512 277.333c-93.867 0-170.667 76.8-170.667 170.667s76.8 170.667 170.667 170.667 170.667-76.8 170.667-170.667-76.8-170.667-170.667-170.667zM512 533.333c-46.933 0-85.333-38.4-85.333-85.333s38.4-85.333 85.333-85.333 85.333 38.4 85.333 85.333-38.4 85.333-85.333 85.333z" />
<glyph unicode="&#xe935;" glyph-name="dollar" d="M512-64c-281.6 0-512 230.4-512 512s230.4 512 512 512 512-230.4 512-512-230.4-512-512-512zM512 874.667c-234.667 0-426.667-192-426.667-426.667s192-426.667 426.667-426.667 426.667 192 426.667 426.667-192 426.667-426.667 426.667zM512 405.333c-81.067 0-149.333 51.2-166.4 119.467-4.267 8.533-4.267 17.067-4.267 29.867 0 81.067 76.8 149.333 170.667 149.333s170.667-68.267 170.667-149.333c0-12.8 0-21.333-4.267-29.867-4.267-21.333-29.867-38.4-51.2-29.867-21.333 4.267-38.4 29.867-29.867 51.2 0 4.267 0 8.533 0 12.8 0 29.867-38.4 59.733-85.333 59.733s-85.333-29.867-85.333-64c0-4.267 0-8.533 0-12.8 8.533-29.867 42.667-51.2 85.333-51.2 25.6 0 42.667-17.067 42.667-42.667s-17.067-42.667-42.667-42.667zM512 192c-93.867 0-170.667 68.267-170.667 149.333 0 12.8 0 21.333 4.267 29.867 4.267 21.333 29.867 38.4 51.2 29.867 21.333-4.267 38.4-29.867 29.867-51.2 0-4.267 0-8.533 0-12.8 0-34.133 38.4-64 85.333-64s85.333 29.867 85.333 64c0 4.267 0 8.533 0 12.8-8.533 29.867-42.667 51.2-85.333 51.2-25.6 0-42.667 17.067-42.667 42.667s17.067 42.667 42.667 42.667c81.067 0 149.333-51.2 166.4-119.467 4.267-4.267 4.267-12.8 4.267-25.6 0-81.067-76.8-149.333-170.667-149.333zM512 106.667c-25.6 0-42.667 17.067-42.667 42.667v85.333c0 25.6 17.067 42.667 42.667 42.667s42.667-17.067 42.667-42.667v-85.333c0-25.6-17.067-42.667-42.667-42.667zM512 618.667c-25.6 0-42.667 17.067-42.667 42.667v85.333c0 25.6 17.067 42.667 42.667 42.667s42.667-17.067 42.667-42.667v-85.333c0-25.6-17.067-42.667-42.667-42.667zM640 490.667c-12.8 0-21.333 4.267-29.867 12.8s-12.8 17.067-12.8 29.867 4.267 21.333 12.8 29.867c17.067 17.067 42.667 17.067 59.733 0 8.533-8.533 12.8-17.067 12.8-29.867s-4.267-21.333-12.8-29.867c-8.533-8.533-17.067-12.8-29.867-12.8z" />
<glyph unicode="&#xe936;" glyph-name="download" d="M213.333 576c-25.6 0-42.667 17.067-42.667 42.667 0 166.4 132.267 298.667 298.667 298.667 128 0 243.2-85.333 285.867-209.067 4.267-21.333-4.267-46.933-29.867-51.2-21.333-8.533-46.933 4.267-55.467 25.6-25.6 89.6-106.667 149.333-200.533 149.333-119.467 0-213.333-93.867-213.333-213.333 0-25.6-17.067-42.667-42.667-42.667zM768 234.667c-25.6 0-42.667 17.067-42.667 42.667s17.067 42.667 42.667 42.667c93.867 0 170.667 76.8 170.667 170.667s-76.8 170.667-170.667 170.667c-12.8 0-29.867 0-42.667-4.267-21.333-4.267-46.933 8.533-51.2 29.867s8.533 46.933 29.867 51.2c21.333 4.267 42.667 8.533 64 8.533 140.8 0 256-115.2 256-256s-115.2-256-256-256zM341.333 234.667h-128c-25.6 0-42.667 17.067-42.667 42.667s17.067 42.667 42.667 42.667h128c25.6 0 42.667-17.067 42.667-42.667s-17.067-42.667-42.667-42.667zM768 234.667h-85.333c-25.6 0-42.667 17.067-42.667 42.667s17.067 42.667 42.667 42.667h85.333c25.6 0 42.667-17.067 42.667-42.667s-17.067-42.667-42.667-42.667zM213.333 234.667c-119.467 0-213.333 93.867-213.333 213.333s93.867 213.333 213.333 213.333c25.6 0 42.667-17.067 42.667-42.667s-17.067-42.667-42.667-42.667c-72.533 0-128-55.467-128-128s55.467-128 128-128c25.6 0 42.667-17.067 42.667-42.667s-17.067-42.667-42.667-42.667zM512-21.333c-25.6 0-42.667 17.067-42.667 42.667v384c0 25.6 17.067 42.667 42.667 42.667s42.667-17.067 42.667-42.667v-384c0-25.6-17.067-42.667-42.667-42.667zM512-21.333c-12.8 0-21.333 4.267-29.867 12.8-17.067 17.067-17.067 42.667 0 59.733l128 128c17.067 17.067 42.667 17.067 59.733 0s17.067-42.667 0-59.733l-128-128c-8.533-8.533-17.067-12.8-29.867-12.8zM512-21.333c-12.8 0-21.333 4.267-29.867 12.8l-128 128c-17.067 17.067-17.067 42.667 0 59.733s42.667 17.067 59.733 0l128-128c17.067-17.067 17.067-42.667 0-59.733-8.533-8.533-17.067-12.8-29.867-12.8z" />
<glyph unicode="&#xe937;" glyph-name="drawer" d="M896-64h-768c-25.6 0-42.667 17.067-42.667 42.667v469.333c0 25.6 17.067 42.667 42.667 42.667h768c25.6 0 42.667-17.067 42.667-42.667v-469.333c0-25.6-17.067-42.667-42.667-42.667zM170.667 21.333h682.667v384h-682.667v-384zM597.333 234.667h-170.667c-25.6 0-42.667 17.067-42.667 42.667s17.067 42.667 42.667 42.667h170.667c25.6 0 42.667-17.067 42.667-42.667s-17.067-42.667-42.667-42.667zM896 405.333h-768c-25.6 0-42.667 17.067-42.667 42.667v469.333c0 25.6 17.067 42.667 42.667 42.667h768c25.6 0 42.667-17.067 42.667-42.667v-469.333c0-25.6-17.067-42.667-42.667-42.667zM170.667 490.667h682.667v384h-682.667v-384zM597.333 704h-170.667c-25.6 0-42.667 17.067-42.667 42.667s17.067 42.667 42.667 42.667h170.667c25.6 0 42.667-17.067 42.667-42.667s-17.067-42.667-42.667-42.667z" />
<glyph unicode="&#xe938;" glyph-name="drop" d="M512-64c-213.333 0-384 170.667-384 384 0 170.667 102.4 349.867 145.067 418.133 25.6 38.4 145.067 221.867 238.933 221.867 119.467 0 384-371.2 384-640 0-213.333-170.667-384-384-384zM512 874.667c-59.733-8.533-298.667-315.733-298.667-554.667 0-166.4 132.267-298.667 298.667-298.667s298.667 132.267 298.667 298.667c0 238.933-238.933 546.133-298.667 554.667zM512 106.667c0 0-4.267 0-4.267 0-106.667 4.267-200.533 102.4-209.067 209.067 0 0 0 4.267 0 4.267 0 25.6 17.067 42.667 42.667 42.667 21.333 0 42.667-17.067 42.667-42.667 0-64 64-128 128-128 21.333 0 42.667-21.333 42.667-42.667s-17.067-42.667-42.667-42.667z" />
<glyph unicode="&#xe939;" glyph-name="earth" d="M512-64c-281.6 0-512 230.4-512 512s230.4 512 512 512 512-230.4 512-512-230.4-512-512-512zM512 874.667c-234.667 0-426.667-192-426.667-426.667s192-426.667 426.667-426.667 426.667 192 426.667 426.667-192 426.667-426.667 426.667zM277.333 0c-12.8 0-21.333 4.267-29.867 12.8-17.067 17.067-17.067 42.667 0 59.733l17.067 17.067 34.133 102.4-29.867 59.733-119.467 81.067c-12.8 4.267-21.333 17.067-21.333 29.867v128c0 17.067 12.8 34.133 29.867 38.4l119.467 38.4 51.2 51.2-128 179.2c-12.8 21.333-8.533 51.2 8.533 64 21.333 12.8 46.933 8.533 59.733-8.533l149.333-209.067c12.8-17.067 8.533-38.4-4.267-55.467l-85.333-85.333c-4.267-4.267-8.533-8.533-17.067-8.533l-98.133-34.133v-72.533l110.933-72.533c4.267-4.267 12.8-8.533 12.8-17.067l42.667-85.333c4.267-12.8 4.267-25.6 0-34.133l-42.667-128c0-4.267-4.267-12.8-8.533-17.067l-21.333-21.333c-8.533-8.533-21.333-12.8-29.867-12.8zM682.667 149.333c-8.533 0-12.8 0-17.067 4.267l-85.333 42.667c-8.533 4.267-17.067 12.8-17.067 17.067l-42.667 85.333c-4.267 12.8-4.267 25.6 0 38.4l38.4 76.8v76.8c0 25.6 17.067 42.667 42.667 42.667h64l115.2 153.6c0 0 4.267 4.267 4.267 4.267l68.267 72.533c17.067 17.067 42.667 17.067 59.733 0s17.067-42.667 0-59.733l-72.533-72.533-128-166.4c-4.267-12.8-17.067-17.067-29.867-17.067h-42.667v-42.667c0-8.533 0-12.8-4.267-17.067l-34.133-68.267 25.6-55.467 46.933-21.333 59.733 59.733 38.4 81.067c8.533 12.8 21.333 21.333 34.133 25.6 17.067 0 29.867-4.267 38.4-17.067l81.067-119.467 17.067-8.533c21.333-8.533 29.867-38.4 17.067-55.467-8.533-21.333-38.4-29.867-55.467-17.067l-25.6 12.8c-8.533 4.267-12.8 8.533-17.067 12.8l-42.667 68.267-8.533-21.333c0-4.267-4.267-8.533-8.533-12.8l-85.333-85.333c-12.8-12.8-21.333-17.067-34.133-17.067z" />
<glyph unicode="&#xe93a;" glyph-name="edit" d="M776.533-64h-614.4c-89.6 0-162.133 72.533-162.133 162.133v614.4c0 89.6 72.533 162.133 162.133 162.133h307.2c25.6 0 42.667-17.067 42.667-42.667s-17.067-42.667-42.667-42.667h-307.2c-42.667 0-76.8-34.133-76.8-76.8v-610.133c0-42.667 34.133-76.8 76.8-76.8h610.133c42.667 0 76.8 34.133 76.8 76.8v302.933c0 25.6 17.067 42.667 42.667 42.667s42.667-17.067 42.667-42.667v-307.2c4.267-89.6-68.267-162.133-157.867-162.133zM256 149.333c-12.8 0-21.333 4.267-29.867 12.8s-12.8 25.6-12.8 38.4l42.667 213.333c0 8.533 4.267 17.067 12.8 21.333l512 512c17.067 17.067 42.667 17.067 59.733 0l170.667-170.667c17.067-17.067 17.067-42.667 0-59.733l-512-512c-4.267-4.267-12.8-8.533-21.333-12.8l-213.333-42.667c-4.267 0-4.267 0-8.533 0zM337.067 384l-25.6-136.533 136.533 25.6 473.6 473.6-110.933 110.933-473.6-473.6z" />
<glyph unicode="&#xe93b;" glyph-name="education" d="M512 362.667c-4.267 0-8.533 0-12.8 4.267l-469.333 170.667c-17.067 4.267-29.867 21.333-29.867 38.4s12.8 34.133 29.867 38.4l469.333 170.667c8.533 4.267 21.333 4.267 29.867 0l469.333-170.667c12.8-4.267 25.6-21.333 25.6-38.4s-12.8-34.133-29.867-38.4l-469.333-170.667c-4.267-4.267-8.533-4.267-12.8-4.267zM166.4 576l345.6-123.733 345.6 123.733-345.6 123.733-345.6-123.733zM810.667 106.667h-298.667c-25.6 0-42.667 17.067-42.667 42.667s17.067 42.667 42.667 42.667h256c-4.267 110.933-29.867 204.8-72.533 273.067-12.8 21.333-4.267 46.933 12.8 59.733 21.333 12.8 46.933 4.267 59.733-12.8 55.467-89.6 85.333-213.333 85.333-358.4 0-29.867-17.067-46.933-42.667-46.933zM512 106.667h-298.667c-25.6 0-42.667 17.067-42.667 42.667 0 145.067 29.867 268.8 85.333 358.4 12.8 21.333 38.4 25.6 59.733 12.8s25.6-38.4 12.8-59.733c-42.667-68.267-68.267-162.133-72.533-273.067h256c25.6 0 42.667-17.067 42.667-42.667s-17.067-38.4-42.667-38.4zM938.667 106.667c-25.6 0-42.667 17.067-42.667 42.667v426.667c0 25.6 17.067 42.667 42.667 42.667s42.667-17.067 42.667-42.667v-426.667c0-25.6-17.067-42.667-42.667-42.667z" />
<glyph unicode="&#xe93c;" glyph-name="eject" d="M768 277.333h-512c-17.067 0-29.867 8.533-38.4 21.333s-8.533 29.867 0 42.667l256 384c17.067 25.6 55.467 25.6 72.533 0l256-384c8.533-12.8 8.533-29.867 0-42.667s-17.067-21.333-34.133-21.333zM337.067 362.667h354.133l-179.2 264.533-174.933-264.533zM768 149.333h-512c-25.6 0-42.667 17.067-42.667 42.667s17.067 42.667 42.667 42.667h512c25.6 0 42.667-17.067 42.667-42.667s-17.067-42.667-42.667-42.667z" />
<glyph unicode="&#xe93d;" glyph-name="euro" d="M512-64c-281.6 0-512 230.4-512 512s230.4 512 512 512c281.6 0 512-230.4 512-512s-230.4-512-512-512zM512 874.667c-234.667 0-426.667-192-426.667-426.667s192-426.667 426.667-426.667c234.667 0 426.667 192 426.667 426.667s-192 426.667-426.667 426.667zM554.667 192c-140.8 0-256 115.2-256 256s115.2 256 256 256c55.467 0 110.933-17.067 153.6-51.2 17.067-12.8 21.333-42.667 8.533-59.733s-42.667-21.333-59.733-8.533c-29.867 21.333-64 34.133-102.4 34.133-93.867 0-170.667-76.8-170.667-170.667s76.8-170.667 170.667-170.667c38.4 0 72.533 12.8 102.4 34.133 17.067 12.8 46.933 8.533 59.733-8.533s8.533-46.933-8.533-59.733c-42.667-34.133-98.133-51.2-153.6-51.2zM554.667 405.333h-298.667c-25.6 0-42.667 17.067-42.667 42.667s17.067 42.667 42.667 42.667h298.667c25.6 0 42.667-17.067 42.667-42.667s-17.067-42.667-42.667-42.667z" />
<glyph unicode="&#xe93e;" glyph-name="expand" d="M981.333-64h-170.667c-25.6 0-42.667 17.067-42.667 42.667s17.067 42.667 42.667 42.667h170.667c25.6 0 42.667-17.067 42.667-42.667s-17.067-42.667-42.667-42.667zM981.333-64c-25.6 0-42.667 17.067-42.667 42.667v170.667c0 25.6 17.067 42.667 42.667 42.667s42.667-17.067 42.667-42.667v-170.667c0-25.6-17.067-42.667-42.667-42.667zM213.333 874.667h-170.667c-25.6 0-42.667 17.067-42.667 42.667s17.067 42.667 42.667 42.667h170.667c25.6 0 42.667-17.067 42.667-42.667s-17.067-42.667-42.667-42.667zM42.667 704c-25.6 0-42.667 17.067-42.667 42.667v170.667c0 25.6 17.067 42.667 42.667 42.667s42.667-17.067 42.667-42.667v-170.667c0-25.6-17.067-42.667-42.667-42.667zM332.8 584.533c-12.8 0-21.333 4.267-29.867 12.8l-281.6 281.6c-17.067 17.067-17.067 42.667 0 59.733s42.667 17.067 59.733 0l277.333-277.333c17.067-17.067 17.067-42.667 0-59.733-4.267-12.8-17.067-17.067-25.6-17.067zM972.8-55.467c-12.8 0-21.333 4.267-29.867 12.8l-277.333 277.333c-17.067 17.067-17.067 42.667 0 59.733s42.667 17.067 59.733 0l277.333-277.333c17.067-17.067 17.067-42.667 0-59.733-8.533-8.533-21.333-12.8-29.867-12.8zM42.667-64c-25.6 0-42.667 17.067-42.667 42.667v170.667c0 25.6 17.067 42.667 42.667 42.667s42.667-17.067 42.667-42.667v-170.667c0-25.6-17.067-42.667-42.667-42.667zM213.333-64h-170.667c-25.6 0-42.667 17.067-42.667 42.667s17.067 42.667 42.667 42.667h170.667c25.6 0 42.667-17.067 42.667-42.667s-17.067-42.667-42.667-42.667zM981.333 704c-25.6 0-42.667 17.067-42.667 42.667v170.667c0 25.6 17.067 42.667 42.667 42.667s42.667-17.067 42.667-42.667v-170.667c0-25.6-17.067-42.667-42.667-42.667zM981.333 874.667h-170.667c-25.6 0-42.667 17.067-42.667 42.667s17.067 42.667 42.667 42.667h170.667c25.6 0 42.667-17.067 42.667-42.667s-17.067-42.667-42.667-42.667zM691.2 584.533c-12.8 0-21.333 4.267-29.867 12.8-17.067 17.067-17.067 42.667 0 59.733l277.333 277.333c17.067 17.067 42.667 17.067 59.733 0s17.067-42.667 0-59.733l-277.333-277.333c-4.267-8.533-17.067-12.8-29.867-12.8zM51.2-55.467c-12.8 0-21.333 4.267-29.867 12.8-17.067 17.067-17.067 42.667 0 59.733l277.333 277.333c17.067 17.067 42.667 17.067 59.733 0s17.067-42.667 0-59.733l-277.333-277.333c-8.533-8.533-17.067-12.8-29.867-12.8z" />
<glyph unicode="&#xe93f;" glyph-name="external" d="M768 21.333h-597.333c-93.867 0-170.667 76.8-170.667 170.667v426.667c0 93.867 76.8 170.667 170.667 170.667h469.333c25.6 0 42.667-17.067 42.667-42.667s-17.067-42.667-42.667-42.667h-469.333c-46.933 0-85.333-38.4-85.333-85.333v-426.667c0-46.933 38.4-85.333 85.333-85.333h597.333c46.933 0 85.333 38.4 85.333 85.333v298.667c0 25.6 17.067 42.667 42.667 42.667s42.667-17.067 42.667-42.667v-298.667c0-93.867-76.8-170.667-170.667-170.667zM640 448c-12.8 0-21.333 4.267-29.867 12.8-17.067 17.067-17.067 42.667 0 59.733l341.333 341.333c17.067 17.067 42.667 17.067 59.733 0s17.067-42.667 0-59.733l-341.333-341.333c-8.533-8.533-17.067-12.8-29.867-12.8zM981.333 789.333h-170.667c-25.6 0-42.667 17.067-42.667 42.667s17.067 42.667 42.667 42.667h170.667c25.6 0 42.667-17.067 42.667-42.667s-17.067-42.667-42.667-42.667zM981.333 618.667c-25.6 0-42.667 17.067-42.667 42.667v170.667c0 25.6 17.067 42.667 42.667 42.667s42.667-17.067 42.667-42.667v-170.667c0-25.6-17.067-42.667-42.667-42.667z" />
<glyph unicode="&#xe940;" glyph-name="eye" d="M512 277.333c-93.867 0-170.667 76.8-170.667 170.667s76.8 170.667 170.667 170.667 170.667-76.8 170.667-170.667-76.8-170.667-170.667-170.667zM512 533.333c-46.933 0-85.333-38.4-85.333-85.333s38.4-85.333 85.333-85.333 85.333 38.4 85.333 85.333-38.4 85.333-85.333 85.333zM512 106.667c-320 0-499.2 307.2-507.733 320s-8.533 29.867 0 42.667c8.533 12.8 187.733 320 507.733 320s499.2-307.2 507.733-320c8.533-12.8 8.533-29.867 0-42.667s-187.733-320-507.733-320zM93.867 448c42.667-64 192-256 418.133-256s375.467 192 418.133 256c-42.667 64-192 256-418.133 256s-375.467-192-418.133-256z" />
<glyph unicode="&#xe941;" glyph-name="factory" d="M298.667-64h-256c-25.6 0-42.667 17.067-42.667 42.667v938.667c0 25.6 17.067 42.667 42.667 42.667h170.667c25.6 0 42.667-17.067 42.667-42.667v-384c0-25.6-17.067-42.667-42.667-42.667s-42.667 17.067-42.667 42.667v341.333h-85.333v-853.333h213.333c25.6 0 42.667-17.067 42.667-42.667s-17.067-42.667-42.667-42.667zM981.333-64h-938.667c-25.6 0-42.667 17.067-42.667 42.667v554.667c0 25.6 17.067 42.667 42.667 42.667s42.667-17.067 42.667-42.667v-512h853.333v469.333h-85.333c-25.6 0-42.667 17.067-42.667 42.667s17.067 42.667 42.667 42.667h128c25.6 0 42.667-17.067 42.667-42.667v-554.667c0-25.6-17.067-42.667-42.667-42.667zM213.333 490.667c-12.8 0-25.6 4.267-34.133 17.067-12.8 17.067-12.8 46.933 8.533 59.733l213.333 170.667c12.8 8.533 29.867 12.8 46.933 4.267 12.8-8.533 21.333-21.333 21.333-38.4v-170.667c0-25.6-17.067-42.667-42.667-42.667s-42.667 17.067-42.667 42.667v81.067l-145.067-115.2c-8.533-4.267-17.067-8.533-25.6-8.533zM426.667 490.667c-12.8 0-25.6 4.267-34.133 17.067-12.8 17.067-12.8 46.933 8.533 59.733l213.333 170.667c12.8 8.533 29.867 12.8 46.933 4.267 12.8-8.533 21.333-21.333 21.333-38.4v-170.667c0-25.6-17.067-42.667-42.667-42.667s-42.667 17.067-42.667 42.667v81.067l-145.067-115.2c-8.533-4.267-17.067-8.533-25.6-8.533zM640 490.667c-12.8 0-25.6 4.267-34.133 17.067-12.8 17.067-12.8 46.933 8.533 59.733l213.333 170.667c12.8 8.533 29.867 12.8 46.933 4.267 12.8-8.533 21.333-21.333 21.333-38.4v-170.667c0-25.6-17.067-42.667-42.667-42.667s-42.667 17.067-42.667 42.667v81.067l-145.067-115.2c-8.533-4.267-17.067-8.533-25.6-8.533zM810.667-64h-597.333c-25.6 0-42.667 17.067-42.667 42.667v213.333c0 25.6 17.067 42.667 42.667 42.667h597.333c25.6 0 42.667-17.067 42.667-42.667v-213.333c0-25.6-17.067-42.667-42.667-42.667zM256 21.333h512v128h-512v-128zM810.667 320h-597.333c-25.6 0-42.667 17.067-42.667 42.667s17.067 42.667 42.667 42.667h597.333c25.6 0 42.667-17.067 42.667-42.667s-17.067-42.667-42.667-42.667z" />
<glyph unicode="&#xe942;" glyph-name="fastforward" d="M128 149.333c-8.533 0-12.8 0-21.333 4.267-12.8 8.533-21.333 21.333-21.333 38.4v512c0 17.067 8.533 29.867 21.333 38.4s29.867 8.533 42.667 0l384-256c12.8-8.533 17.067-21.333 17.067-34.133s-8.533-25.6-17.067-34.133l-384-256c-4.267-8.533-12.8-12.8-21.333-12.8zM170.667 622.933v-354.133l264.533 174.933-264.533 179.2zM512 149.333c-8.533 0-12.8 0-21.333 4.267-12.8 8.533-21.333 21.333-21.333 38.4v512c0 17.067 8.533 29.867 21.333 38.4s29.867 8.533 42.667 0l384-256c12.8-8.533 17.067-21.333 17.067-34.133s-8.533-25.6-17.067-34.133l-384-256c-4.267-8.533-12.8-12.8-21.333-12.8zM554.667 622.933v-354.133l264.533 174.933-264.533 179.2zM896 149.333c-25.6 0-42.667 17.067-42.667 42.667v512c0 25.6 17.067 42.667 42.667 42.667s42.667-17.067 42.667-42.667v-512c0-25.6-17.067-42.667-42.667-42.667z" />
<glyph unicode="&#xe943;" glyph-name="fileadd" d="M853.333 618.667h-256c-25.6 0-42.667 17.067-42.667 42.667v256h85.333v-213.333h213.333v-85.333zM725.333-64h-554.667c-25.6 0-42.667 17.067-42.667 42.667v938.667c0 25.6 17.067 42.667 42.667 42.667h426.667c12.8 0 21.333-4.267 29.867-12.8l256-256c8.533-8.533 12.8-17.067 12.8-29.867v-213.333h-85.333v196.267l-230.4 230.4h-366.933v-853.333h512v-85.333zM853.333 192h-256c-25.6 0-42.667 17.067-42.667 42.667s17.067 42.667 42.667 42.667h256c25.6 0 42.667-17.067 42.667-42.667s-17.067-42.667-42.667-42.667zM725.333 64c-25.6 0-42.667 17.067-42.667 42.667v256c0 25.6 17.067 42.667 42.667 42.667s42.667-17.067 42.667-42.667v-256c0-25.6-17.067-42.667-42.667-42.667zM725.333-64c-166.4 0-298.667 132.267-298.667 298.667s132.267 298.667 298.667 298.667 298.667-132.267 298.667-298.667-132.267-298.667-298.667-298.667zM725.333 448c-119.467 0-213.333-93.867-213.333-213.333s93.867-213.333 213.333-213.333 213.333 93.867 213.333 213.333-93.867 213.333-213.333 213.333z" />
<glyph unicode="&#xe944;" glyph-name="fileremove" d="M853.333 618.667h-256c-25.6 0-42.667 17.067-42.667 42.667v256h85.333v-213.333h213.333v-85.333zM725.333-64h-554.667c-25.6 0-42.667 17.067-42.667 42.667v938.667c0 25.6 17.067 42.667 42.667 42.667h426.667c12.8 0 21.333-4.267 29.867-12.8l256-256c8.533-8.533 12.8-17.067 12.8-29.867v-213.333h-85.333v196.267l-230.4 230.4h-366.933v-853.333h512v-85.333zM853.333 192h-256c-25.6 0-42.667 17.067-42.667 42.667s17.067 42.667 42.667 42.667h256c25.6 0 42.667-17.067 42.667-42.667s-17.067-42.667-42.667-42.667zM725.333-64c-166.4 0-298.667 132.267-298.667 298.667s132.267 298.667 298.667 298.667 298.667-132.267 298.667-298.667-132.267-298.667-298.667-298.667zM725.333 448c-119.467 0-213.333-93.867-213.333-213.333s93.867-213.333 213.333-213.333 213.333 93.867 213.333 213.333-93.867 213.333-213.333 213.333z" />
<glyph unicode="&#xe945;" glyph-name="file" d="M853.333-64h-682.667c-25.6 0-42.667 17.067-42.667 42.667v938.667c0 25.6 17.067 42.667 42.667 42.667h682.667c25.6 0 42.667-17.067 42.667-42.667v-938.667c0-25.6-17.067-42.667-42.667-42.667zM213.333 21.333h597.333v853.333h-597.333v-853.333zM554.667 661.333h-213.333c-25.6 0-42.667 17.067-42.667 42.667s17.067 42.667 42.667 42.667h213.333c25.6 0 42.667-17.067 42.667-42.667s-17.067-42.667-42.667-42.667zM682.667 490.667h-341.333c-25.6 0-42.667 17.067-42.667 42.667s17.067 42.667 42.667 42.667h341.333c25.6 0 42.667-17.067 42.667-42.667s-17.067-42.667-42.667-42.667zM597.333 320h-256c-25.6 0-42.667 17.067-42.667 42.667s17.067 42.667 42.667 42.667h256c25.6 0 42.667-17.067 42.667-42.667s-17.067-42.667-42.667-42.667zM682.667 149.333h-341.333c-25.6 0-42.667 17.067-42.667 42.667s17.067 42.667 42.667 42.667h341.333c25.6 0 42.667-17.067 42.667-42.667s-17.067-42.667-42.667-42.667z" />
<glyph unicode="&#xe946;" glyph-name="files" d="M682.667 106.667h-512c-25.6 0-42.667 17.067-42.667 42.667v768c0 25.6 17.067 42.667 42.667 42.667h512c25.6 0 42.667-17.067 42.667-42.667v-768c0-25.6-17.067-42.667-42.667-42.667zM213.333 192h426.667v682.667h-426.667v-682.667zM853.333-64h-512c-25.6 0-42.667 17.067-42.667 42.667v170.667c0 25.6 17.067 42.667 42.667 42.667s42.667-17.067 42.667-42.667v-128h426.667v682.667h-128c-25.6 0-42.667 17.067-42.667 42.667s17.067 42.667 42.667 42.667h170.667c25.6 0 42.667-17.067 42.667-42.667v-768c0-25.6-17.067-42.667-42.667-42.667z" />
<glyph unicode="&#xe947;" glyph-name="filter" d="M426.667-64c-8.533 0-17.067 4.267-21.333 4.267-12.8 8.533-21.333 25.6-21.333 38.4v371.2l-375.467 541.867c-8.533 12.8-12.8 29.867-4.267 46.933 8.533 12.8 21.333 21.333 38.4 21.333h938.667c17.067 0 29.867-8.533 38.4-21.333s4.267-29.867-4.267-42.667l-375.467-546.133v-285.867c0-17.067-8.533-29.867-25.6-38.4l-170.667-85.333c-4.267-4.267-8.533-4.267-17.067-4.267zM123.733 874.667l337.067-486.4c4.267-8.533 8.533-17.067 8.533-25.6v-315.733l85.333 42.667v273.067c0 8.533 4.267 17.067 8.533 25.6l337.067 486.4h-776.533z" />
<glyph unicode="&#xe948;" glyph-name="fire" d="M512-64c-213.333 0-384 170.667-384 384 0 170.667 102.4 349.867 145.067 418.133 25.6 38.4 145.067 221.867 238.933 221.867 25.6 0 42.667-17.067 42.667-42.667s-17.067-42.667-42.667-42.667c-59.733-8.533-298.667-315.733-298.667-554.667 0-166.4 132.267-298.667 298.667-298.667s298.667 132.267 298.667 298.667c0 34.133-4.267 68.267-12.8 110.933-21.333 81.067-59.733 174.933-115.2 260.267-12.8 21.333-8.533 46.933 12.8 59.733s46.933 8.533 59.733-12.8c59.733-93.867 102.4-196.267 128-285.867 8.533-46.933 12.8-93.867 12.8-132.267 0-213.333-170.667-384-384-384zM640 537.6c-12.8 0-25.6 4.267-34.133 12.8-89.6 102.4-136.533 230.4-136.533 366.933 0 25.6 17.067 42.667 42.667 42.667s42.667-17.067 42.667-42.667c0-115.2 42.667-226.133 115.2-311.467 17.067-17.067 12.8-42.667-4.267-59.733-4.267-4.267-17.067-8.533-25.6-8.533zM640 537.6c-12.8 0-21.333 4.267-29.867 12.8-17.067 17.067-17.067 42.667 0 59.733 29.867 34.133 55.467 72.533 64 115.2 4.267 21.333 29.867 34.133 51.2 29.867s38.4-29.867 29.867-51.2c-12.8-55.467-46.933-110.933-85.333-153.6-8.533-8.533-21.333-12.8-29.867-12.8zM512-64c-119.467 0-213.333 93.867-213.333 213.333 0 132.267 132.267 341.333 213.333 341.333 25.6 0 42.667-17.067 42.667-42.667 0-21.333-17.067-38.4-38.4-42.667-29.867-17.067-132.267-153.6-132.267-256 0-72.533 55.467-128 128-128s128 55.467 128 128c0 12.8-4.267 29.867-8.533 51.2-8.533 38.4-29.867 81.067-55.467 123.733-12.8 21.333-8.533 46.933 12.8 59.733s46.933 8.533 59.733-12.8c29.867-46.933 55.467-102.4 68.267-149.333 4.267-25.6 8.533-46.933 8.533-72.533 0-119.467-93.867-213.333-213.333-213.333zM576 234.667c-12.8 0-25.6 4.267-34.133 12.8-46.933 59.733-72.533 128-72.533 200.533 0 25.6 17.067 42.667 42.667 42.667s42.667-17.067 42.667-42.667c0-51.2 17.067-102.4 51.2-140.8 17.067-17.067 12.8-42.667-4.267-59.733-4.267-8.533-17.067-12.8-25.6-12.8zM576 234.667c-12.8 0-21.333 4.267-29.867 12.8-17.067 17.067-17.067 42.667 0 59.733 12.8 12.8 21.333 29.867 25.6 46.933 4.267 21.333 29.867 38.4 51.2 29.867 21.333-4.267 38.4-29.867 29.867-51.2-8.533-34.133-25.6-64-51.2-85.333-4.267-8.533-17.067-12.8-25.6-12.8z" />
<glyph unicode="&#xe949;" glyph-name="firstaid" d="M341.333 789.333h-85.333c0 72.533 55.467 128 128 128v-85.333c-25.6 0-42.667-17.067-42.667-42.667zM768 789.333h-85.333c0 25.6-17.067 42.667-42.667 42.667v85.333c72.533 0 128-55.467 128-128zM768 661.333h-512v128h85.333v-42.667h341.333v42.667h85.333zM384 917.333h256v-85.333h-256v85.333zM896-21.333h-768c-72.533 0-128 55.467-128 128v512c0 72.533 55.467 128 128 128h768c72.533 0 128-55.467 128-128v-512c0-72.533-55.467-128-128-128zM128 661.333c-25.6 0-42.667-17.067-42.667-42.667v-512c0-25.6 17.067-42.667 42.667-42.667h768c25.6 0 42.667 17.067 42.667 42.667v512c0 25.6-17.067 42.667-42.667 42.667h-768zM512 149.333c-25.6 0-42.667 17.067-42.667 42.667v341.333c0 25.6 17.067 42.667 42.667 42.667s42.667-17.067 42.667-42.667v-341.333c0-25.6-17.067-42.667-42.667-42.667zM682.667 320h-341.333c-25.6 0-42.667 17.067-42.667 42.667s17.067 42.667 42.667 42.667h341.333c25.6 0 42.667-17.067 42.667-42.667s-17.067-42.667-42.667-42.667z" />
<glyph unicode="&#xe94a;" glyph-name="flag" d="M170.667-64h-128c-25.6 0-42.667 17.067-42.667 42.667v938.667c0 25.6 17.067 42.667 42.667 42.667h128c25.6 0 42.667-17.067 42.667-42.667v-938.667c0-25.6-17.067-42.667-42.667-42.667zM85.333 21.333h42.667v853.333h-42.667v-853.333zM426.667 320c-89.6 0-260.267 42.667-264.533 42.667-21.333 4.267-38.4 29.867-29.867 51.2 4.267 21.333 29.867 38.4 51.2 29.867 0 0 166.4-42.667 247.467-42.667 38.4 0 102.4 8.533 162.133 21.333 68.267 12.8 132.267 21.333 179.2 21.333 55.467 0 123.733-17.067 170.667-29.867v430.933c-46.933 8.533-119.467 29.867-174.933 29.867-38.4 0-102.4-8.533-162.133-21.333-68.267-12.8-132.267-21.333-179.2-21.333-89.6 0-260.267 42.667-264.533 42.667-25.6 8.533-38.4 29.867-34.133 51.2 8.533 25.6 29.867 38.4 51.2 34.133 0 0 166.4-42.667 247.467-42.667 38.4 0 102.4 8.533 162.133 21.333 68.267 12.8 132.267 21.333 179.2 21.333 89.6 0 221.867-42.667 226.133-46.933 17.067-4.267 29.867-21.333 29.867-38.4v-512c0-12.8-8.533-25.6-17.067-34.133-12.8-8.533-25.6-8.533-38.4-4.267 0 0-123.733 38.4-200.533 38.4-38.4 0-102.4-8.533-162.133-21.333-68.267-12.8-132.267-21.333-179.2-21.333z" />
<glyph unicode="&#xe94b;" glyph-name="floppy" d="M981.333-64h-768c-12.8 0-21.333 4.267-29.867 12.8l-170.667 170.667c-8.533 8.533-12.8 17.067-12.8 29.867v768c0 25.6 17.067 42.667 42.667 42.667h938.667c25.6 0 42.667-17.067 42.667-42.667v-938.667c0-25.6-17.067-42.667-42.667-42.667zM230.4 21.333h708.267v853.333h-853.333v-708.267l145.067-145.067zM768-64h-512c-25.6 0-42.667 17.067-42.667 42.667v298.667c0 25.6 17.067 42.667 42.667 42.667h512c25.6 0 42.667-17.067 42.667-42.667v-298.667c0-25.6-17.067-42.667-42.667-42.667zM298.667 21.333h426.667v213.333h-426.667v-213.333zM341.333 106.667h128v-170.667h-128v170.667zM512-64h-170.667v213.333h170.667v-213.333zM384-21.333h85.333v128h-85.333v-128zM810.667 405.333h-597.333c-25.6 0-42.667 17.067-42.667 42.667v469.333c0 25.6 17.067 42.667 42.667 42.667h597.333c25.6 0 42.667-17.067 42.667-42.667v-469.333c0-25.6-17.067-42.667-42.667-42.667zM256 490.667h512v384h-512v-384z" />
<glyph unicode="&#xe94c;" glyph-name="folderadd" d="M482.133 106.667h-439.467c-25.6 0-42.667 17.067-42.667 42.667v768c0 25.6 17.067 42.667 42.667 42.667h298.667c25.6 0 42.667-17.067 42.667-42.667v-42.667h469.333c25.6 0 42.667-17.067 42.667-42.667v-170.667c0-25.6-17.067-42.667-42.667-42.667s-42.667 17.067-42.667 42.667v128h-469.333c-25.6 0-42.667 17.067-42.667 42.667v42.667h-213.333v-682.667h396.8c25.6 0 42.667-17.067 42.667-42.667s-17.067-42.667-42.667-42.667zM469.333 106.667h-426.667c-12.8 0-25.6 4.267-34.133 17.067-8.533 8.533-8.533 21.333-8.533 34.133l128 512c4.267 21.333 21.333 34.133 42.667 34.133h810.667c12.8 0 25.6-4.267 34.133-17.067 8.533-8.533 8.533-25.6 8.533-38.4l-72.533-251.733c-4.267-21.333-29.867-34.133-51.2-29.867s-34.133 29.867-29.867 51.2l55.467 200.533h-721.067l-106.667-426.667h371.2c25.6 0 42.667-17.067 42.667-42.667s-17.067-42.667-42.667-42.667zM853.333 192h-256c-25.6 0-42.667 17.067-42.667 42.667s17.067 42.667 42.667 42.667h256c25.6 0 42.667-17.067 42.667-42.667s-17.067-42.667-42.667-42.667zM725.333 64c-25.6 0-42.667 17.067-42.667 42.667v256c0 25.6 17.067 42.667 42.667 42.667s42.667-17.067 42.667-42.667v-256c0-25.6-17.067-42.667-42.667-42.667zM725.333-64c-166.4 0-298.667 132.267-298.667 298.667s132.267 298.667 298.667 298.667 298.667-132.267 298.667-298.667-132.267-298.667-298.667-298.667zM725.333 448c-119.467 0-213.333-93.867-213.333-213.333s93.867-213.333 213.333-213.333 213.333 93.867 213.333 213.333-93.867 213.333-213.333 213.333z" />
<glyph unicode="&#xe94d;" glyph-name="folderremove" d="M482.133 106.667h-439.467c-25.6 0-42.667 17.067-42.667 42.667v768c0 25.6 17.067 42.667 42.667 42.667h298.667c25.6 0 42.667-17.067 42.667-42.667v-42.667h469.333c25.6 0 42.667-17.067 42.667-42.667v-170.667c0-25.6-17.067-42.667-42.667-42.667s-42.667 17.067-42.667 42.667v128h-469.333c-25.6 0-42.667 17.067-42.667 42.667v42.667h-213.333v-682.667h396.8c25.6 0 42.667-17.067 42.667-42.667s-17.067-42.667-42.667-42.667zM469.333 106.667h-426.667c-12.8 0-25.6 4.267-34.133 17.067-8.533 8.533-8.533 21.333-8.533 34.133l128 512c4.267 21.333 21.333 34.133 42.667 34.133h810.667c12.8 0 25.6-4.267 34.133-17.067 8.533-8.533 8.533-25.6 8.533-38.4l-72.533-251.733c-4.267-21.333-29.867-34.133-51.2-29.867s-34.133 29.867-29.867 51.2l55.467 200.533h-721.067l-106.667-426.667h371.2c25.6 0 42.667-17.067 42.667-42.667s-17.067-42.667-42.667-42.667zM853.333 192h-256c-25.6 0-42.667 17.067-42.667 42.667s17.067 42.667 42.667 42.667h256c25.6 0 42.667-17.067 42.667-42.667s-17.067-42.667-42.667-42.667zM725.333-64c-166.4 0-298.667 132.267-298.667 298.667s132.267 298.667 298.667 298.667 298.667-132.267 298.667-298.667-132.267-298.667-298.667-298.667zM725.333 448c-119.467 0-213.333-93.867-213.333-213.333s93.867-213.333 213.333-213.333 213.333 93.867 213.333 213.333-93.867 213.333-213.333 213.333z" />
<glyph unicode="&#xe94e;" glyph-name="folder" d="M853.333 21.333h-810.667c-25.6 0-42.667 17.067-42.667 42.667v768c0 25.6 17.067 42.667 42.667 42.667h298.667c25.6 0 42.667-17.067 42.667-42.667v-42.667h469.333c25.6 0 42.667-17.067 42.667-42.667v-170.667c0-25.6-17.067-42.667-42.667-42.667s-42.667 17.067-42.667 42.667v128h-469.333c-25.6 0-42.667 17.067-42.667 42.667v42.667h-213.333v-682.667h768c25.6 0 42.667-17.067 42.667-42.667s-17.067-42.667-42.667-42.667zM853.333 21.333h-810.667c-12.8 0-25.6 4.267-34.133 17.067s-8.533 21.333-8.533 34.133l128 512c4.267 21.333 21.333 34.133 42.667 34.133h810.667c12.8 0 25.6-4.267 34.133-17.067s8.533-21.333 8.533-34.133l-128-512c-4.267-21.333-21.333-34.133-42.667-34.133zM98.133 106.667h721.067l106.667 426.667h-721.067l-106.667-426.667z" />
<glyph unicode="&#xe94f;" glyph-name="forkknife" d="M341.333 533.333v0c-93.867 0-170.667 76.8-170.667 170.667v213.333c0 25.6 17.067 42.667 42.667 42.667h256c25.6 0 42.667-17.067 42.667-42.667v-213.333c0-93.867-76.8-170.667-170.667-170.667zM256 874.667v-170.667c0-46.933 38.4-85.333 85.333-85.333v0c46.933 0 85.333 38.4 85.333 85.333v170.667h-170.667zM341.333-64c-25.6 0-42.667 17.067-42.667 42.667v554.667c0 25.6 17.067 42.667 42.667 42.667s42.667-17.067 42.667-42.667v-554.667c0-25.6-17.067-42.667-42.667-42.667zM640-64c-25.6 0-42.667 17.067-42.667 42.667v938.667c0 25.6 17.067 42.667 42.667 42.667s42.667-17.067 42.667-42.667v-938.667c0-25.6-17.067-42.667-42.667-42.667zM810.667 320h-170.667c-25.6 0-42.667 17.067-42.667 42.667v554.667c0 25.6 17.067 42.667 42.667 42.667 119.467 0 213.333-93.867 213.333-213.333v-384c0-25.6-17.067-42.667-42.667-42.667zM682.667 405.333h85.333v341.333c0 55.467-34.133 102.4-85.333 119.467v-460.8z" />
<glyph unicode="&#xe950;" glyph-name="form" d="M938.667 704h-853.333c-46.933 0-85.333 38.4-85.333 85.333v85.333c0 46.933 38.4 85.333 85.333 85.333h853.333c46.933 0 85.333-38.4 85.333-85.333v-85.333c0-46.933-38.4-85.333-85.333-85.333zM938.667 789.333v0zM85.333 874.667v-85.333h853.333v85.333h-853.333zM938.667 320h-853.333c-46.933 0-85.333 38.4-85.333 85.333v85.333c0 46.933 38.4 85.333 85.333 85.333h853.333c46.933 0 85.333-38.4 85.333-85.333v-85.333c0-46.933-38.4-85.333-85.333-85.333zM938.667 405.333v0zM85.333 490.667v-85.333h853.333v85.333h-853.333zM469.333-21.333h-384c-21.333 0-42.667 21.333-42.667 42.667v85.333c0 21.333 21.333 42.667 42.667 42.667h384c25.6 0 42.667-21.333 42.667-42.667v-85.333c0-21.333-17.067-42.667-42.667-42.667zM469.333-64h-384c-46.933 0-85.333 38.4-85.333 85.333v85.333c0 46.933 38.4 85.333 85.333 85.333h384c46.933 0 85.333-38.4 85.333-85.333v-85.333c0-46.933-38.4-85.333-85.333-85.333zM469.333 21.333v0zM85.333 106.667v-85.333h384v85.333h-384z" />
<glyph unicode="&#xe951;" glyph-name="frame" d="M170.667 21.333c-25.6 0-42.667 17.067-42.667 42.667v768c0 25.6 17.067 42.667 42.667 42.667s42.667-17.067 42.667-42.667v-768c0-25.6-17.067-42.667-42.667-42.667zM853.333 21.333c-25.6 0-42.667 17.067-42.667 42.667v768c0 25.6 17.067 42.667 42.667 42.667s42.667-17.067 42.667-42.667v-768c0-25.6-17.067-42.667-42.667-42.667zM981.333 661.333h-938.667c-25.6 0-42.667 17.067-42.667 42.667s17.067 42.667 42.667 42.667h938.667c25.6 0 42.667-17.067 42.667-42.667s-17.067-42.667-42.667-42.667zM981.333 149.333h-938.667c-25.6 0-42.667 17.067-42.667 42.667s17.067 42.667 42.667 42.667h938.667c25.6 0 42.667-17.067 42.667-42.667s-17.067-42.667-42.667-42.667z" />
<glyph unicode="&#xe952;" glyph-name="fullscreen" d="M213.333 64h-170.667c-25.6 0-42.667 17.067-42.667 42.667v170.667c0 25.6 17.067 42.667 42.667 42.667s42.667-17.067 42.667-42.667v-128h128c25.6 0 42.667-17.067 42.667-42.667s-17.067-42.667-42.667-42.667zM981.333 64h-170.667c-25.6 0-42.667 17.067-42.667 42.667s17.067 42.667 42.667 42.667h128v128c0 25.6 17.067 42.667 42.667 42.667s42.667-17.067 42.667-42.667v-170.667c0-25.6-17.067-42.667-42.667-42.667zM981.333 576c-25.6 0-42.667 17.067-42.667 42.667v128h-128c-25.6 0-42.667 17.067-42.667 42.667s17.067 42.667 42.667 42.667h170.667c25.6 0 42.667-17.067 42.667-42.667v-170.667c0-25.6-17.067-42.667-42.667-42.667zM42.667 576c-25.6 0-42.667 17.067-42.667 42.667v170.667c0 25.6 17.067 42.667 42.667 42.667h170.667c25.6 0 42.667-17.067 42.667-42.667s-17.067-42.667-42.667-42.667h-128v-128c0-25.6-17.067-42.667-42.667-42.667z" />
<glyph unicode="&#xe953;" glyph-name="gift" d="M938.667-64h-853.333c-25.6 0-42.667 17.067-42.667 42.667v512c0 25.6 17.067 42.667 42.667 42.667h853.333c25.6 0 42.667-17.067 42.667-42.667v-512c0-25.6-17.067-42.667-42.667-42.667zM128 21.333h768v426.667h-768v-426.667zM981.333 448h-938.667c-25.6 0-42.667 17.067-42.667 42.667v170.667c0 25.6 17.067 42.667 42.667 42.667h938.667c25.6 0 42.667-17.067 42.667-42.667v-170.667c0-25.6-17.067-42.667-42.667-42.667zM85.333 533.333h853.333v85.333h-853.333v-85.333zM512-64c-25.6 0-42.667 17.067-42.667 42.667v682.667c0 25.6 17.067 42.667 42.667 42.667s42.667-17.067 42.667-42.667v-682.667c0-25.6-17.067-42.667-42.667-42.667zM640 618.667c-25.6 0-42.667 17.067-42.667 42.667s17.067 42.667 42.667 42.667c46.933 0 85.333 38.4 85.333 85.333s-38.4 85.333-85.333 85.333-85.333-38.4-85.333-85.333c0-25.6-17.067-42.667-42.667-42.667s-42.667 17.067-42.667 42.667c0 93.867 76.8 170.667 170.667 170.667s170.667-76.8 170.667-170.667-76.8-170.667-170.667-170.667zM384 618.667c-93.867 0-170.667 76.8-170.667 170.667s76.8 170.667 170.667 170.667 170.667-76.8 170.667-170.667c0-25.6-17.067-42.667-42.667-42.667s-42.667 17.067-42.667 42.667c0 46.933-38.4 85.333-85.333 85.333s-85.333-38.4-85.333-85.333 38.4-85.333 85.333-85.333c25.6 0 42.667-17.067 42.667-42.667s-17.067-42.667-42.667-42.667zM512 533.333c-25.6 0-42.667 17.067-42.667 42.667v213.333c0 25.6 17.067 42.667 42.667 42.667s42.667-17.067 42.667-42.667v-213.333c0-25.6-17.067-42.667-42.667-42.667z" />
<glyph unicode="&#xe954;" glyph-name="glass" d="M512 320v0c-145.067 0-256 115.2-256 256v341.333c0 25.6 17.067 42.667 42.667 42.667h426.667c25.6 0 42.667-17.067 42.667-42.667v-341.333c0-140.8-115.2-256-256-256zM341.333 874.667v-298.667c0-93.867 76.8-170.667 170.667-170.667v0c93.867 0 170.667 76.8 170.667 170.667v298.667h-341.333zM640-64h-256c-25.6 0-42.667 17.067-42.667 42.667s17.067 42.667 42.667 42.667h256c25.6 0 42.667-17.067 42.667-42.667s-17.067-42.667-42.667-42.667zM512-64c0 0 0 0 0 0-25.6 0-42.667 21.333-42.667 42.667v384c0 21.333 21.333 42.667 42.667 42.667 0 0 0 0 0 0 25.6 0 42.667-21.333 42.667-42.667v-384c0-25.6-21.333-42.667-42.667-42.667zM725.333 661.333c0 0-4.267 0-4.267 0l-426.667 42.667c-21.333 4.267-38.4 21.333-38.4 46.933 4.267 21.333 21.333 38.4 46.933 38.4l426.667-42.667c21.333-4.267 42.667-21.333 38.4-46.933-4.267-21.333-21.333-38.4-42.667-38.4z" />
</font>
</defs>
</svg>
